<svg xmlns="http://www.w3.org/2000/svg">
<defs>
<font id="CaviarDreams" horiz-adv-x="430" >
  <font-face 
    font-family="Caviar Dreams"
    font-weight="400"
    font-stretch="normal"
    units-per-em="2048"
    panose-1="2 11 4 2 2 2 4 2 5 4"
    ascent="1638"
    descent="-410"
    x-height="982"
    cap-height="1600"
    bbox="-400 -375 2239 2005"
    underline-thickness="150"
    underline-position="-142"
    unicode-range="U+0020-FB05"
  />
<missing-glyph horiz-adv-x="1835" 
d="M942 291q0 22 -4 22h-21v-32h19v10h6zM1481 819q0 23 -6 23h-21v-31h19v8h8zM1104 1268q8 0 14 10q10 14 10 39q-2 22 -10 37q-8 10 -16 10q-10 0 -17 -10q-10 -13 -10 -37q2 -25 10 -37q9 -12 19 -12zM1456 930q12 0 19 10q8 12 8 39q0 22 -10 37q-7 10 -17 10t-16 -10
q-8 -15 -8 -37q0 -25 10 -39q6 -10 14 -10zM377 557q12 0 18 10q8 15 8 39q0 25 -10 37q-6 10 -16 10q-12 0 -19 -10q-8 -10 -8 -37q0 -24 10 -37q7 -12 17 -12zM754 229q10 15 10 39q0 25 -8 37q-8 10 -19 10q-10 0 -18 -10q-8 -12 -8 -37q0 -26 8 -39q6 -10 16 -10t19 10z
M401 811q0 20 -6 20h-20v-30h18v10h8zM958 291v-41h-22v10h-19v-35q0 -8 15 -8v-16h-64v16q13 0 13 4v92q0 4 -13 4v17h101v-43h-11zM1294 315h-8v19h49v-19q-10 0 -12 -6l-29 -51v-37q0 -4 13 -4v-16h-60v16q13 0 13 4v37l-29 51q-4 6 -12 6v19h57v-19h-8l12 -26zM580 1366
h-7v18h45v-18q-8 0 -12 -6l-24 -53v-37q0 -4 12 -4v-17h-64v17q15 0 15 4v37l-31 53q-2 6 -8 6v18h53v-18h-8l16 -29zM395 1196h-8v18h47v-18q-8 0 -10 -6l-29 -51v-37q0 -4 13 -4v-19h-62v19q12 0 12 4v37l-26 51q-4 6 -13 6v18h56v-18h-8l14 -29zM1497 819v-39h-24v8h-19
v-32q0 -8 14 -8v-19h-61v19q12 0 12 4v90q0 4 -12 4v18h100v-45h-10zM1475 485h-9v19h50v-19q-11 0 -13 -6l-28 -51v-37q0 -4 12 -4v-16h-60v16q13 0 13 4v37l-29 51q-4 6 -12 6v19h55v-19h-6l12 -26zM350 1319v-47q0 -4 19 -4v-19h-56v19q11 0 11 4v82q0 12 -11 12v18h29
l59 -69v47q0 4 -16 4v18h55v-18q-10 0 -10 -4v-113h-18zM696 1384l43 -86l35 86h41v-18q-10 0 -10 -12v-82q0 -4 10 -4v-19h-53v19q6 0 6 2v30l-20 -51h-25l-27 54v-31q0 -4 9 -4v-19h-46v19q9 0 9 4v82q0 12 -9 12v18h37zM1167 1317q0 -29 -16 -49q-16 -21 -47 -21

<glyph glyph-name=".notdef" horiz-adv-x="1835" 
d="M942 291q0 22 -4 22h-21v-32h19v10h6zM1481 819q0 23 -6 23h-21v-31h19v8h8zM1104 1268q8 0 14 10q10 14 10 39q-2 22 -10 37q-8 10 -16 10q-10 0 -17 -10q-10 -13 -10 -37q2 -25 10 -37q9 -12 19 -12zM1456 930q12 0 19 10q8 12 8 39q0 22 -10 37q-7 10 -17 10t-16 -10
q-8 -15 -8 -37q0 -25 10 -39q6 -10 14 -10zM377 557q12 0 18 10q8 15 8 39q0 25 -10 37q-6 10 -16 10q-12 0 -19 -10q-8 -10 -8 -37q0 -24 10 -37q7 -12 17 -12zM754 229q10 15 10 39q0 25 -8 37q-8 10 -19 10q-10 0 -18 -10q-8 -12 -8 -37q0 -26 8 -39q6 -10 16 -10t19 10z
M401 811q0 20 -6 20h-20v-30h18v10h8zM958 291v-41h-22v10h-19v-35q0 -8 15 -8v-16h-64v16q13 0 13 4v92q0 4 -13 4v17h101v-43h-11zM1294 315h-8v19h49v-19q-10 0 -12 -6l-29 -51v-37q0 -4 13 -4v-16h-60v16q13 0 13 4v37l-29 51q-4 6 -12 6v19h57v-19h-8l12 -26zM580 1366
h-7v18h45v-18q-8 0 -12 -6l-24 -53v-37q0 -4 12 -4v-17h-64v17q15 0 15 4v37l-31 53q-2 6 -8 6v18h53v-18h-8l16 -29zM395 1196h-8v18h47v-18q-8 0 -10 -6l-29 -51v-37q0 -4 13 -4v-19h-62v19q12 0 12 4v37l-26 51q-4 6 -13 6v18h56v-18h-8l14 -29zM1497 819v-39h-24v8h-19
v-32q0 -8 14 -8v-19h-61v19q12 0 12 4v90q0 4 -12 4v18h100v-45h-10zM1475 485h-9v19h50v-19q-11 0 -13 -6l-28 -51v-37q0 -4 12 -4v-16h-60v16q13 0 13 4v37l-29 51q-4 6 -12 6v19h55v-19h-6l12 -26zM350 1319v-47q0 -4 19 -4v-19h-56v19q11 0 11 4v82q0 12 -11 12v18h29
l59 -69v47q0 4 -16 4v18h55v-18q-10 0 -10 -4v-113h-18zM696 1384l43 -86l35 86h41v-18q-10 0 -10 -12v-82q0 -4 10 -4v-19h-53v19q6 0 6 2v30l-20 -51h-25l-27 54v-31q0 -4 9 -4v-19h-46v19q9 0 9 4v82q0 12 -9 12v18h37zM1167 1317q0 -29 -16 -49q-16 -21 -47 -21
q-35 0 -51 21q-17 20 -17 49t17 47q16 20 49 20t49 -20q16 -18 16 -47zM1251 1319v-47q0 -4 19 -4v-19h-58v19q9 0 9 4v82q0 12 -9 12v18h31l57 -69v47q0 4 -16 4v18h55v-18q-8 0 -8 -4v-113h-22zM1511 1384v-45h-26q0 23 -6 23h-4v-90q0 -4 12 -4v-19h-60v19q13 0 13 4v90
h-4q-7 0 -7 -23h-26v45h108zM917 1309v-33q0 -8 15 -8v-19h-64v19q13 0 13 4v90q0 4 -13 4v18h101v-45h-27q0 23 -4 23h-21v-33h19v8h22v-37h-22v9h-19zM1432 268v-47q0 -4 18 -4v-16h-57v16q10 0 10 4v82q0 12 -10 12v19h30l58 -70v47q0 4 -17 4v19h58v-19q-11 0 -11 -4
v-110h-20zM1417 684l41 -86l37 86h41v-18q-8 0 -8 -13v-82q0 -4 8 -4v-16h-55v16q10 0 10 2v29l-25 -47h-22l-27 51v-31q0 -4 8 -4v-16h-47v16q8 0 8 4v82q0 13 -8 13v18h39zM1522 977q0 -29 -15 -47q-16 -21 -51 -21q-33 0 -47 19q-16 20 -16 49q0 31 14 49q16 21 47 21
q37 0 53 -21q15 -18 15 -49zM1432 1157v-45q0 -4 18 -4v-18h-57v18q10 0 10 4v82q0 12 -10 12v19h30l58 -72v49q0 4 -17 4v19h58v-19q-11 0 -11 -4v-112h-20zM430 336v-43h-25q0 20 -6 20h-4v-90q0 -4 13 -4v-16h-62v16q12 0 12 4v90h-4q-6 0 -6 -20h-24v43h106zM338 1034
l41 -84l37 84h39v-16q-9 0 -9 -14v-82q0 -4 9 -4v-19h-54v19q11 0 11 4v28l-25 -51h-25l-24 53v-30q0 -4 6 -4v-19h-45v19q8 0 8 4v82q0 14 -8 14v16h39zM440 606q0 -31 -12 -49q-16 -18 -51 -18t-47 18q-17 18 -17 49t15 47q14 21 47 21q37 0 53 -21q12 -16 12 -47z
M350 428v-45q0 -4 19 -4v-19h-56v19q11 0 11 4v82q0 10 -11 10v19h29l59 -70v47q0 4 -16 4v19h55v-19q-10 0 -10 -4v-111h-18zM1061 334l43 -84l37 84h39v-17q-9 0 -9 -14v-82q0 -4 9 -4v-16h-54v16q9 0 9 4v29l-23 -49h-22l-27 51v-31q0 -4 8 -4v-16h-47v16q8 0 8 4v82
q0 14 -8 14v17h37zM686 315q16 21 51 21q31 0 49 -21q15 -16 15 -49q0 -28 -17 -49q-16 -16 -49 -16t-49 18q-14 19 -14 47q0 33 14 49zM537 268v-47q0 -4 18 -4v-16h-55v16q8 0 8 4v82q0 14 -8 14v17h28l60 -70v49q0 4 -19 4v17h56v-17q-11 0 -11 -4v-112h-18zM418 811v-41
h-25v8h-18v-33q0 -8 14 -8v-16h-61v16q12 0 12 4v90q0 5 -12 5v18h100v-43h-10z" />
    <glyph glyph-name=".null" horiz-adv-x="200" 
 />
    <glyph glyph-name="nonmarkingreturn" horiz-adv-x="708" 
 />
    <glyph glyph-name="space" unicode=" " horiz-adv-x="708" 
 />
    <glyph glyph-name="space" unicode="&#xa0;" horiz-adv-x="708" 
 />
    <glyph glyph-name="exclam" unicode="!" 
d="M278.5 139q26.5 -26 26.5 -63q0 -38 -26.5 -64t-63.5 -26t-63.5 26t-26.5 64q0 37 26.5 63t63.5 26t63.5 -26zM258 1600v-1324h-90v1324h90z" />
    <glyph glyph-name="quotedbl" unicode="&#x22;" horiz-adv-x="575" 
d="M125 997v600h90v-600h-90zM360 997v600h90v-600h-90z" />
    <glyph glyph-name="numbersign" unicode="#" horiz-adv-x="1653" 
d="M763 985h230l111 445h90l-111 -445h445l-23 -90h-445l-57 -230h445l-23 -90h-445l-111 -445h-90l111 445h-230l-111 -445h-90l111 445h-445l23 90h445l57 230h-445l23 90h445l111 445h90zM970 895h-230l-57 -230h230z" />
    <glyph glyph-name="dollar" unicode="$" horiz-adv-x="1011" 
d="M556 856v-667q100 15 176 91q94 94 94 228q0 133 -94 227q-74 74 -176 121zM466 1413q-62 -10 -108 -57q-61 -60 -61 -146t60 -146q42 -42 109 -79v428zM466 891q-104 45 -170 112q-86 85 -86 207q0 119 86 205q72 73 170 84v163h90v-165q88 -15 155 -81q47 -46 67 -108
l-78 -31q-17 46 -51 80q-41 40 -93 53v-464q137 -53 236 -151q119 -119 119 -287q0 -170 -119 -289q-101 -101 -236 -117v-140h-90v139q-144 11 -251 118q-95 96 -115 226l82 30q12 -115 94 -196q81 -81 190 -92v704z" />
    <glyph glyph-name="percent" unicode="%" horiz-adv-x="1221" 
d="M1107 1314l-918 -1311l-74 51l918 1311zM474.5 1147.5q67.5 -67.5 67.5 -163.5t-67.5 -163.5t-163.5 -67.5t-163.5 67.5t-67.5 163.5t67.5 163.5t163.5 67.5t163.5 -67.5zM311 1128q-60 0 -102 -42t-42 -102t42 -102t102 -42q59 0 101.5 42t42.5 102t-42.5 102t-101.5 42
zM1074.5 547.5q67.5 -67.5 67.5 -163.5t-67.5 -163.5t-163.5 -67.5t-163.5 67.5t-67.5 163.5t67.5 163.5t163.5 67.5t163.5 -67.5zM911 528q-60 0 -102 -42t-42 -102t42 -102t102 -42q59 0 101.5 42t42.5 102t-42.5 102t-101.5 42z" />
    <glyph glyph-name="ampersand" unicode="&#x26;" horiz-adv-x="1304" 
d="M915 331q-13 5 -25 12q-48 27 -120 102q-48 44 -68 55q-22 12 -44 12q-13 0 -25 -3q-36 -10 -54 -42q-13 -22 -13 -44q0 -12 4 -25q10 -36 39 -52q19 -10 52 -10q18 0 41 3l-9 -82q-25 -7 -50 -7q-40 0 -78 21q-60 33 -79 104q-7 25 -7 48q0 44 24 86q37 64 107 83
q25 7 49 7q44 0 85 -24q40 -22 104 -89q58 -53 85 -68q30 -17 62 -17q18 0 36 5q52 14 79 61q17 31 17 63q0 17 -5 35q-14 51 -60 78q-28 16 -63 16q-25 0 -54 -8l-1 89q28 8 56 8q53 0 104 -29q78 -44 102 -131q8 -30 8 -58q0 -55 -29 -105q-44 -78 -132 -102
q-26 -7 -50 -8q-33 -108 -119 -194q-139 -140 -335 -140t-335 139t-139 336q0 196 137 342q94 101 244 151q-72 31 -147.5 111.5t-75.5 221.5q0 138 99 237.5t240 99.5q140 0 240 -99q55 -53 76 -119l-81 -32q-18 49 -59 90q-73 72 -176 72t-176 -72.5t-73 -176.5
q0 -103 70.5 -178t130.5 -98t150 -24v-84l-72 -2q-219 -41 -329 -161t-110 -279q0 -160 113 -273t273 -113q159 0 272 113q66 66 94 148z" />
    <glyph glyph-name="quotesingle" unicode="'" horiz-adv-x="340" 
d="M125 997v600h90v-600h-90z" />
    <glyph glyph-name="parenleft" unicode="(" horiz-adv-x="703" 
d="M603 1628q-135 -62 -244 -199q-181 -228 -181 -629q0 -402 181 -630q109 -137 244 -202v-85q-168 58 -299 223q-204 254 -204 694q0 439 204 694q131 165 299 223v-89z" />
    <glyph glyph-name="parenright" unicode=")" horiz-adv-x="703" 
d="M100 1717q168 -58 299 -223q204 -255 204 -694q0 -440 -204 -694q-131 -165 -299 -223v85q135 65 244 202q181 228 181 630q0 401 -181 629q-109 137 -244 199v89z" />
    <glyph glyph-name="asterisk" unicode="*" horiz-adv-x="800" 
d="M445 1384l174 122l52 -74l-193 -135l193 -135l-52 -74l-174 122v-213h-90v214l-175 -123l-52 74l193 135l-193 135l52 74l175 -123v214h90v-213z" />
    <glyph glyph-name="plus" unicode="+" horiz-adv-x="1050" 
d="M480 547h-355v90h355v355h90v-355h355v-90h-355v-355h-90v355z" />
    <glyph glyph-name="comma" unicode="," horiz-adv-x="379" 
d="M279 166l-185 -385h-84l103 385h166z" />
    <glyph glyph-name="hyphen" unicode="-" horiz-adv-x="840" 
d="M125 637h590v-90h-590v90z" />
    <glyph glyph-name="hyphen" unicode="&#xad;" horiz-adv-x="840" 
d="M125 637h590v-90h-590v90z" />
    <glyph glyph-name="period" unicode="." horiz-adv-x="380" 
d="M253.5 139q26.5 -26 26.5 -63q0 -38 -26.5 -64t-63.5 -26t-63.5 26t-26.5 64q0 37 26.5 63t63.5 26t63.5 -26z" />
    <glyph glyph-name="slash" unicode="/" horiz-adv-x="727" 
d="M674 1600h103l-725 -1600h-102z" />
    <glyph glyph-name="zero" unicode="0" horiz-adv-x="1250" 
d="M1079 1051q0 188 -133 320.5t-321 132.5t-321 -132.5t-133 -320.5v-530q0 -188 133 -320.5t321 -132.5t321 132.5t133 320.5v530zM1174 521q0 -227 -160.5 -388t-388.5 -161q-227 0 -388 161t-161 388v530q0 227 161 388t388 161q228 0 388.5 -161t160.5 -388v-530z" />
    <glyph glyph-name="one" unicode="1" horiz-adv-x="1250" 
d="M717 1600v-1600h-90v1442h-95l123 158h62z" />
    <glyph glyph-name="two" unicode="2" horiz-adv-x="1250" 
d="M367.5 433.5q165.5 123.5 292.5 219t236 214.5t109 277q0 159 -112 271t-271 112q-157 0 -270 -112q-96 -96 -110 -229l-91 33q23 150 134 262q140 141 337 141q198 0 337.5 -140t139.5 -338q0 -197 -137 -344q-93 -101 -220 -196t-286 -214t-198 -300h841v-90h-943
q46 310 211.5 433.5z" />
    <glyph glyph-name="three" unicode="3" horiz-adv-x="1250" 
d="M569 893l-75 2v90q93 1 152.5 24t129 97t69.5 176q0 103 -72 174.5t-174 71.5q-101 0 -174 -71q-40 -41 -59 -92l-86 34q22 70 77 123q101 100 242 100q143 0 242.5 -100.5t99.5 -239.5q0 -142 -76 -223.5t-142 -108.5q144 -48 239 -150q137 -147 137 -344
q0 -198 -139.5 -338t-337.5 -140q-197 0 -337 141q-111 112 -134 262l91 33q14 -133 110 -229q113 -112 270 -112q159 0 271 112t112 271q0 158 -109 277t-327 160z" />
    <glyph glyph-name="four" unicode="4" horiz-adv-x="1250" 
d="M833 1600h90v-1042h153v-90h-153v-468h-90v468h-660zM833 1406l-505 -848h505v848z" />
    <glyph glyph-name="five" unicode="5" horiz-adv-x="1250" 
d="M282 1103q50 16 112 30q64 11 124 11q110 0 211 -35q226 -77 336 -284q69 -129 69 -264q0 -84 -26 -169q-69 -225 -276 -336q-126 -67 -260 -67q-85 0 -173 27q-180 55 -282 194l64 71q85 -126 246 -175q72 -22 142 -22q112 0 218 56q173 92 231 280q22 72 22 142
q0 112 -57 219q-92 172 -280 238q-81 28 -178 28q-127 0 -282 -49l-72 63l184 507v32h500v-90h-425z" />
    <glyph glyph-name="six" unicode="6" horiz-adv-x="1250" 
d="M174 521q0 -188 133 -320.5t321 -132.5t321 132.5t133 320.5t-133 321t-321 133t-321 -133t-133 -321zM272 940q151 131 356 131q228 0 388.5 -161t160.5 -389q0 -227 -160.5 -388t-388.5 -161q-227 0 -388 161q-155 155 -161 371h-6q10 353 170 577t396 488q14 16 27 31
h124q-20 -25 -42 -50q-263 -294 -417 -513q-33 -46 -59 -97z" />
    <glyph glyph-name="seven" unicode="7" horiz-adv-x="1250" 
d="M827.5 1046q-262.5 -294 -416.5 -513t-164 -533h-94q10 353 170 577t396 488t275 445h-841v90h943q-6 -260 -268.5 -554z" />
    <glyph glyph-name="eight" unicode="8" horiz-adv-x="1250" 
d="M624 75h2q20 -2 40 -2q159 0 271 112t112 271q0 158 -109 277q-106 116 -315 158q-209 -42 -315 -158q-109 -119 -109 -277q0 -159 112 -271t271 -112q20 0 40 2zM625 -20q-20 -2 -41 -2q-198 0 -337.5 140t-139.5 338q0 197 137 344q95 102 239 150q-66 27 -142 108.5
t-76 223.5q0 139 99.5 239.5t242.5 100.5h36q143 0 242.5 -100.5t99.5 -239.5q0 -142 -76 -223.5t-142 -108.5q144 -48 239 -150q137 -147 137 -344q0 -198 -139.5 -338t-337.5 -140q-20 0 -41 2zM624 1527q-8 1 -17 1q-102 0 -174 -71.5t-72 -174.5q0 -102 69.5 -176
t128.5 -97q30 -11 66 -17q36 6 66 17q59 23 128.5 97t69.5 176q0 103 -72 174.5t-174 71.5q-9 0 -17 -1h-2z" />
    <glyph glyph-name="nine" unicode="9" horiz-adv-x="1250" 
d="M1076 1051q0 188 -133 320.5t-321 132.5t-321 -132.5t-133 -320.5t133 -321t321 -133t321 133t133 321zM978 632q-151 -131 -356 -131q-228 0 -388.5 161t-160.5 389q0 227 160.5 388t388.5 161q227 0 388 -161q155 -155 161 -371h6q-10 -353 -170 -577t-396 -488
q-14 -16 -27 -31h-124q20 25 42 50q263 294 417 513q33 46 59 97z" />
    <glyph glyph-name="colon" unicode=":" 
d="M278.5 139q26.5 -26 26.5 -63q0 -38 -26.5 -64t-63.5 -26t-63.5 26t-26.5 64q0 37 26.5 63t63.5 26t63.5 -26zM278.5 756q26.5 -26 26.5 -63q0 -38 -26.5 -64t-63.5 -26t-63.5 26t-26.5 64q0 37 26.5 63t63.5 26t63.5 -26z" />
    <glyph glyph-name="semicolon" unicode=";" horiz-adv-x="477" 
d="M352 166l-185 -385h-84l103 385h166zM278.5 756q26.5 -26 26.5 -63q0 -38 -26.5 -64t-63.5 -26t-63.5 26t-26.5 64q0 37 26.5 63t63.5 26t63.5 -26z" />
    <glyph glyph-name="semicolon" unicode="&#x37e;" horiz-adv-x="477" 
d="M352 166l-185 -385h-84l103 385h166zM278.5 756q26.5 -26 26.5 -63q0 -38 -26.5 -64t-63.5 -26t-63.5 26t-26.5 64q0 37 26.5 63t63.5 26t63.5 -26z" />
    <glyph glyph-name="less" unicode="&#x3c;" horiz-adv-x="1349" 
d="M1249 145l-1149 418l1149 418v-96l-886 -322l886 -322v-96z" />
    <glyph glyph-name="equal" unicode="=" horiz-adv-x="1050" 
d="M125 797h800v-90h-800v90zM125 477h800v-90h-800v90z" />
    <glyph glyph-name="greater" unicode="&#x3e;" horiz-adv-x="1349" 
d="M100 241l886 322l-886 322v96l1149 -418l-1149 -418v96z" />
    <glyph glyph-name="question" unicode="?" horiz-adv-x="956" 
d="M390 589q-40 -82 -40 -166q0 -64 23 -129l-83 -29q-28 80 -28 158q0 104 49 204q80 167 241 289q95 92 136 178q26 53 26 108q0 41 -14 82q-35 98 -128 143q-53 25 -107 25q-41 0 -83 -15q-97 -34 -142 -126q-25 -52 -25 -105l-88 4v8q0 65 32 129q62 127 194 173
q58 20 114 20q74 0 146 -34q126 -61 172 -192q20 -57 20 -113q0 -74 -35 -146q-61 -127 -203 -237q-117 -103 -177 -229zM389.5 139q26.5 -26 26.5 -63q0 -38 -26.5 -64t-63.5 -26t-63.5 26t-26.5 64q0 37 26.5 63t63.5 26t63.5 -26z" />
    <glyph glyph-name="at" unicode="@" horiz-adv-x="1626" 
d="M1088 483v132q-17 75 -74 132q-82 83 -198 83t-197.5 -82.5t-81.5 -199.5q0 -115 81.5 -197t197.5 -82t198 82q57 57 74 132zM1086 313q-121 -127 -272 -127q-150 0 -257 107t-107 255q0 151 107 258t257 107q151 0 272 -127v114h81v-648q18 -43 55 -43q44 0 122 110.5
t78 227.5q0 251 -178.5 429.5t-429.5 178.5t-428.5 -178.5t-177.5 -429.5t177.5 -428.5t428.5 -177.5q172 0 251 49l57 -60q-120 -70 -308 -70q-284 0 -486.5 202t-202.5 485q0 284 202.5 486.5t486.5 202.5q285 0 486 -202.5t201 -486.5q0 -127 -92.5 -272t-204.5 -145
q-13 0 -25 2q-86 18 -93 100v81z" />
    <glyph glyph-name="A" unicode="A" horiz-adv-x="1291" 
d="M890 703l-244 671l-244 -671h488zM923 613h-554l-223 -613h-96l596 1637l595 -1637h-95z" />
    <glyph glyph-name="B" unicode="B" horiz-adv-x="1066" 
d="M434 1600q123 0 210.5 -87t87.5 -210q0 -124 -127 -231q112 -23 211 -132q160 -161 160 -389q0 -227 -160 -393q-149 -154 -356 -157v-1h-310v1600h284zM240 1005v-915h220v-1q167 11 288 137q133 137 133 325t-133 321t-321 133h-187zM240 1510v-409h217q75 7 128 56
q61 56 61 146t-61 148.5t-151 58.5h-194z" />
    <glyph glyph-name="C" unicode="C" horiz-adv-x="1595" 
d="M1427 255l68 -61q-234 -213 -551 -213q-340 0 -579.5 239.5t-239.5 579.5q0 339 239.5 579t579.5 240q317 0 551 -213l-68 -62q-206 183 -483 183q-301 0 -514 -213t-213 -514q0 -302 213 -515t514 -213q277 0 483 183z" />
    <glyph glyph-name="D" unicode="D" horiz-adv-x="1199" 
d="M240 1506v-1413h7q356 0 547 192q213 213 213 515q0 301 -213 515q-191 191 -547 191h-7zM240 1598h7q395 0 612 -218q240 -241 240 -580q0 -340 -240 -580q-217 -218 -612 -218h-7v-2h-90v1600h90v-2z" />
    <glyph glyph-name="E" unicode="E" horiz-adv-x="1075" 
d="M950 1600v-90h-710v-665h710v-90h-710v-665h710v-90h-800v1600h800z" />
    <glyph glyph-name="F" unicode="F" horiz-adv-x="975" 
d="M850 1600v-90h-610v-665h610v-90h-610v-755h-90v1600h700z" />
    <glyph glyph-name="G" unicode="G" horiz-adv-x="1620" 
d="M1489 199q-228 -218 -545 -218q-340 0 -579.5 239.5t-239.5 579.5q0 339 239.5 579t579.5 240q317 0 551 -213l-68 -62q-206 183 -483 183q-301 0 -514 -213t-213 -514q0 -302 213 -515t514 -213q258 0 455 159v488h90v-520z" />
    <glyph glyph-name="H" unicode="H" horiz-adv-x="1150" 
d="M240 717v-717h-90v1600h90v-793h670v793h90v-1600h-90v717h-670z" />
    <glyph glyph-name="I" unicode="I" 
d="M260 1600v-1600h-90v1600h90z" />
    <glyph glyph-name="J" unicode="J" horiz-adv-x="857" 
d="M702 304q0 -152 -80 -232q-85 -86 -206 -86t-206 85.5t-85 187.5l59 23q20 -108 85 -162q54 -46 122 -46q12 0 25 2q83 0 143 59q53 53 53 179v1286h90v-1296z" />
    <glyph glyph-name="K" unicode="K" horiz-adv-x="1097" 
d="M240 775v-775h-90v1600h90v-681l511 681h116l-480 -644l620 -956h-111l-568 884z" />
    <glyph glyph-name="L" unicode="L" horiz-adv-x="950" 
d="M150 0v1600h90v-1510h620v-90h-710z" />
    <glyph glyph-name="M" unicode="M" horiz-adv-x="1707" 
d="M253 1600l601 -1040l600 1040h103l-4 -7v-1593h-90v1437l-609 -1054l-610 1054v-1437h-90v1593l-4 7h103z" />
    <glyph glyph-name="N" unicode="N" horiz-adv-x="1311" 
d="M150 1600h99l822 -1423v1423h90v-1600h-90l-831 1437v-1437h-90v1600z" />
    <glyph glyph-name="O" unicode="O" horiz-adv-x="1892" 
d="M1526.5 1382.5q240.5 -240.5 240.5 -580.5t-240.5 -580.5t-580.5 -240.5t-580.5 240.5t-240.5 580.5t240.5 580.5t580.5 240.5t580.5 -240.5zM946 1531q-302 0 -515.5 -213.5t-213.5 -515.5t213.5 -516t515.5 -214t515.5 214t213.5 516t-213.5 515.5t-515.5 213.5z" />
    <glyph glyph-name="P" unicode="P" horiz-adv-x="1089" 
d="M240 555v-555h-90v1600h420q183 -25 311 -153q153 -153 153 -369q0 -217 -153 -370t-369 -153h-272zM240 1509v-863h272q178 0 304.5 126.5t126.5 305.5t-126.5 305t-304.5 126h-272z" />
    <glyph glyph-name="Q" unicode="Q" horiz-adv-x="1892" 
d="M946 1531q-302 0 -515.5 -213.5t-213.5 -515.5t213.5 -516t515.5 -214t515.5 214t213.5 516t-213.5 515.5t-515.5 213.5zM937 -19q-334 3 -571 241q-241 240 -241 580t240.5 580.5t580.5 240.5t580.5 -240.5t240.5 -580.5t-240 -580q-174 -174 -399 -222q5 -2 10 -3
q73 -20 197 -98q84 -45 118 -55q21 -6 41 -6q36 0 70 19q53 30 69 88q5 16 6 32h91q-2 -27 -10 -55q-27 -94 -112 -142q-54 -31 -112 -31q-33 0 -67 10q-60 16 -170 86q-102 54 -145 66q-29 8 -57 8q-50 0 -96 -26q-74 -42 -96 -123q-4 -12 -5 -24h-91q2 24 9 49
q33 116 139 176z" />
    <glyph glyph-name="R" unicode="R" horiz-adv-x="1089" 
d="M240 1509v-863h272q178 0 304.5 126.5t126.5 305.5t-126.5 305t-304.5 126h-272zM539 556q-13 -1 -27 -1h-272v-555h-90v1600h420q183 -25 311 -153q153 -153 153 -369q0 -217 -153 -370q-106 -106 -243 -139l369 -569h-111z" />
    <glyph glyph-name="S" unicode="S" horiz-adv-x="1042" 
d="M548 886q-171 57 -270 156t-99 240q0 138 99 237.5t240 99.5q140 0 240 -99q55 -53 76 -119l-81 -32q-18 49 -59 90q-73 72 -176 72t-176 -72.5t-73 -176.5q0 -103 73 -176q68 -67 188 -123q192 -62 323 -193q139 -138 139 -334q0 -197 -139 -336t-335 -139t-335 140
q-111 111 -133 258l85 31q14 -130 111 -227q113 -113 272 -113q160 0 273 113t113 273q0 159 -113 272q-99 99 -243 158z" />
    <glyph glyph-name="T" unicode="T" horiz-adv-x="1000" 
d="M545 1510v-1510h-90v1510h-405v90h900v-90h-405z" />
    <glyph glyph-name="U" unicode="U" horiz-adv-x="1345" 
d="M1104 1600h91v-1150q-25 -183 -153 -311q-153 -153 -369 -153q-217 0 -370 153t-153 369v1092h91v-1092q0 -178 126.5 -304.5t305.5 -126.5t305 126.5t126 304.5v1092z" />
    <glyph glyph-name="V" unicode="V" horiz-adv-x="1291" 
d="M145 1600l500 -1374l500 1374h96l-596 -1637l-595 1637h95z" />
    <glyph glyph-name="W" unicode="W" horiz-adv-x="1672" 
d="M791 240v1360h90v-1360q23 -43 57 -77q90 -87 214 -87t214.5 88.5t90.5 213.5v1222h90v-1230q-3 -156 -115 -268q-116 -116 -280 -116q-163 0 -279 115q-21 20 -37 41q-16 -21 -37 -41q-116 -115 -279 -115q-164 0 -279 116q-113 112 -116 268v1230h90v-1222
q0 -125 90.5 -213.5t214.5 -88.5t214 87q34 34 57 77z" />
    <glyph glyph-name="X" unicode="X" horiz-adv-x="1218" 
d="M50 0l507 879l-416 721h103l364 -632l366 632h103l-418 -721l509 -879h-103l-457 790l-456 -790h-102z" />
    <glyph glyph-name="Y" unicode="Y" horiz-adv-x="1291" 
d="M600 647l-550 953h103l492 -853l493 853h103l-551 -953v-647h-90v647z" />
    <glyph glyph-name="Z" unicode="Z" horiz-adv-x="1327" 
d="M1022 1510h-872v90h1027l-873 -1510h873v-90h-1027z" />
    <glyph glyph-name="bracketleft" unicode="[" horiz-adv-x="560" 
d="M215 -285h220v-90h-310v1975h310v-90h-220v-1795z" />
    <glyph glyph-name="backslash" unicode="\" horiz-adv-x="727" 
d="M777 0h-102l-725 1600h103z" />
    <glyph glyph-name="bracketright" unicode="]" horiz-adv-x="560" 
d="M345 1510h-220v90h310v-1975h-310v90h220v1795z" />
    <glyph glyph-name="asciicircum" unicode="^" horiz-adv-x="921" 
d="M513 1600l308 -534h-104l-256 443l-256 -443h-105l309 534h104z" />
    <glyph glyph-name="underscore" unicode="_" horiz-adv-x="1050" 
d="M25 -30h1000v-90h-1000v90z" />
    <glyph glyph-name="grave" unicode="`" horiz-adv-x="629" 
d="M316 1387l163 -187h-84l-245 187h166z" />
    <glyph glyph-name="a" unicode="a" horiz-adv-x="1360" 
d="M1210 0h-90v200q-26 -35 -57 -67q-161 -161 -389 -161q-227 0 -388 161t-161 388q0 228 161 389t388 161q228 0 389 -161q31 -32 57 -67v139h90v-982zM1120 432v178q-25 132 -125 232q-133 133 -321 133t-321 -133t-133 -321t133 -320.5t321 -132.5t321 133
q100 100 125 231z" />
    <glyph glyph-name="b" unicode="b" horiz-adv-x="1359" 
d="M150 1600h90v-756q25 34 57 66q161 161 388 161q228 0 388.5 -161t160.5 -389q0 -227 -160.5 -388t-388.5 -161q-227 0 -388 161q-32 32 -57 66v-199h-90v1600zM240 615v-188q26 -128 124 -226q133 -133 321 -133t321 132.5t133 320.5t-133 321t-321 133t-321 -133
q-98 -98 -124 -227z" />
    <glyph glyph-name="c" unicode="c" horiz-adv-x="1177" 
d="M992 236l95 -34q-26 -36 -59 -69q-161 -161 -389 -161q-227 0 -388 161t-161 389q0 227 161 388t388 161q228 0 389 -161q33 -33 59 -68l-95 -35q-15 18 -32 36q-133 132 -321 132q-187 0 -320 -132.5t-133 -320.5t133 -321t320 -133q188 0 321 133q17 17 32 35z" />
    <glyph glyph-name="d" unicode="d" horiz-adv-x="1360" 
d="M1210 0h-90v200q-26 -35 -57 -67q-161 -161 -389 -161q-227 0 -388 161t-161 388q0 228 161 389t388 161q228 0 389 -161q31 -32 57 -67v757h90v-1600zM1120 432v178q-25 132 -125 232q-133 133 -321 133t-321 -133t-133 -321t133 -320.5t321 -132.5t321 133
q100 100 125 231z" />
    <glyph glyph-name="e" unicode="e" horiz-adv-x="1177" 
d="M337 184q127 -116 302 -116q188 0 321 133q17 17 32 35l95 -34q-26 -36 -59 -69q-161 -161 -389 -161q-227 0 -388 161t-161 389q0 227 161 388t388 161q195 0 341 -117q24 -20 48 -44q9 -9 17 -18l-68 -68zM911 885q-117 90 -272 90q-187 0 -320 -132.5t-133 -320.5
q0 -155 90 -272z" />
    <glyph glyph-name="f" unicode="f" horiz-adv-x="523" 
d="M280 892v-892h-90v892h-100v90h100v266q6 111 85 191q82 76 189 76q56 0 118 -21l-28 -80q-42 18 -81 18q-71 0 -134 -57q-56 -55 -59 -133v-260h200v-90h-200z" />
    <glyph glyph-name="g" unicode="g" horiz-adv-x="1364" 
d="M1119 615q-26 129 -124 227q-133 133 -321 133t-321 -133t-133 -321t133 -321t321 -133t321 133q97 97 124 225v190zM1117 195q-25 -32 -54 -62q-161 -161 -389 -161q-227 0 -388 161t-161 388q0 228 161 388.5t388 160.5q228 0 389 -160q31 -32 57 -67v139h90v-763
q0 -221 -157 -378q-161 -161 -388 -161q-228 0 -389 161q-33 33 -59 69l95 34q15 -18 32 -35q133 -133 321 -133q187 0 320 133q121 121 132 286z" />
    <glyph glyph-name="h" unicode="h" horiz-adv-x="1059" 
d="M150 1600h90v-669q114 110 274 110q174 0 283 -109t112 -275v-657h-90v649q0 125 -90.5 213.5t-214.5 88.5t-214 -87q-40 -40 -60 -83v-781h-90v1600z" />
    <glyph glyph-name="i" unicode="i" 
d="M260 982v-982h-90v982h90zM278.5 1304q26.5 -26 26.5 -63q0 -38 -26.5 -64t-63.5 -26t-63.5 26t-26.5 64q0 37 26.5 63t63.5 26t63.5 -26z" />
    <glyph glyph-name="j" unicode="j" horiz-adv-x="455" 
d="M49 -138q121 14 121 136v984h90v-982q0 -211 -211 -228v90zM278.5 1304q26.5 -26 26.5 -63q0 -38 -26.5 -64t-63.5 -26t-63.5 26t-26.5 64q0 37 26.5 63t63.5 26t63.5 -26z" />
    <glyph glyph-name="k" unicode="k" horiz-adv-x="823" 
d="M629 982l-242 -300l386 -682h-112l-333 610l-88 -109v-501h-90v1400h90v-755l273 337h116z" />
    <glyph glyph-name="l" unicode="l" horiz-adv-x="390" 
d="M240 1600v-1600h-90v1600h90z" />
    <glyph glyph-name="m" unicode="m" horiz-adv-x="1375" 
d="M150 982h90v-23q84 81 201 81q121 0 206 -85q23 -23 40 -50q17 26 41 50q85 85 206 85t206 -85q81 -82 85 -197v-758h-90v758h1q-4 78 -59 133q-60 59 -143 59t-142.5 -59t-59.5 -147v-744h-90v758h1q-4 78 -59 133q-60 59 -143 59t-142 -59q-52 -51 -59 -125v-766h-90
v982z" />
    <glyph glyph-name="n" unicode="n" horiz-adv-x="1071" 
d="M240 763v-763h-90v982h90v-63q123 122 286 122q174 0 283 -109t112 -275v-657h-90v649q0 125 -90.5 213.5t-214.5 88.5t-214 -87q-49 -49 -72 -101z" />
    <glyph glyph-name="o" unicode="o" horiz-adv-x="1278" 
d="M639 1071q228 0 388.5 -161t160.5 -389q0 -227 -160.5 -388t-388.5 -161q-227 0 -388 161t-161 388q0 228 161 389t388 161zM318 842q-133 -133 -133 -321t133 -320.5t321 -132.5t321 132.5t133 320.5t-133 321t-321 133t-321 -133z" />
    <glyph glyph-name="p" unicode="p" horiz-adv-x="1334" 
d="M150 982h90v-138q25 34 57 66q161 160 388 160q228 0 388.5 -160.5t160.5 -388.5q0 -227 -160.5 -388t-388.5 -161q-227 0 -388 161q-32 32 -57 66v-574h-90v1357zM240 615v-188q26 -129 124 -227q133 -133 321 -133t321 133t133 321t-133 321t-321 133t-321 -133
q-98 -98 -124 -227z" />
    <glyph glyph-name="q" unicode="q" horiz-adv-x="1335" 
d="M1185 -375h-90v575q-26 -35 -57 -67q-161 -161 -389 -161q-227 0 -388 161t-161 388q0 228 161 388.5t388 160.5q228 0 389 -160q31 -32 57 -67v139h90v-1357zM1095 432v178q-25 132 -125 232q-133 133 -321 133t-321 -133t-133 -321t133 -321t321 -133t321 133
q100 100 125 232z" />
    <glyph glyph-name="r" unicode="r" horiz-adv-x="599" 
d="M150 982h90v-179q28 40 65 77q119 119 244 125v-98q-85 -4 -176 -95q-128 -127 -133 -305v-507h-90v982z" />
    <glyph glyph-name="s" unicode="s" horiz-adv-x="802" 
d="M420 505q-115 62 -159 106q-69 69 -69 166q0 98 69 167.5t166 69.5q98 0 162 -64q62 -63 62 -143v-5l-78 -31q-10 76 -47.5 114t-98.5 38q-60 0 -103 -42.5t-43 -103.5q0 -60 43 -103q25 -25 106 -76q128 -70 182 -124q85 -86 85 -205q0 -122 -85 -207.5t-206 -85.5
t-206 85.5t-85 187.5l89 23q0 -88 59.5 -147t142.5 -59t142.5 59t59.5 144q0 83 -59 142q-32 32 -129 94z" />
    <glyph glyph-name="t" unicode="t" horiz-adv-x="670" 
d="M290 982v418h90v-418h200v-90h-200v-892h-90v892h-200v90h200z" />
    <glyph glyph-name="u" unicode="u" horiz-adv-x="1099" 
d="M555 -14q-184 0 -293 109t-112 275v612h90v-604q0 -125 91 -213q90 -89 223 -89q124 0 214.5 88.5t90.5 213.5v604h90v-612q-3 -166 -112 -275t-282 -109z" />
    <glyph glyph-name="v" unicode="v" horiz-adv-x="1064" 
d="M532 164l378 818h104l-482 -1009l-482 1009h104z" />
    <glyph glyph-name="w" unicode="w" horiz-adv-x="1375" 
d="M642 260v722h90v-700q0 -88 59.5 -147t142.5 -59t143 59q55 55 59 133h-1v714h90v-714q-4 -115 -85 -196q-85 -86 -206 -86t-206 86q-23 23 -40 48q-17 -25 -41 -48q-85 -86 -206 -86t-206 86q-81 81 -85 196v714h90v-714h-1q4 -78 60 -133q59 -59 142 -59t143 59
q51 51 58 125z" />
    <glyph glyph-name="x" unicode="x" horiz-adv-x="871" 
d="M741 982l-253 -438l-3 -5l3 -5l308 -534h-104l-256 443l-256 -443h-105l309 534l3 5l-3 5l-253 438h104l201 -347l200 347h105z" />
    <glyph glyph-name="y" unicode="y" horiz-adv-x="1005" 
d="M503 88l-222 -463h-88l265 556l-383 801h102l326 -704l326 704h101l-427 -895v1z" />
    <glyph glyph-name="z" unicode="z" horiz-adv-x="1000" 
d="M657 892h-507v90h662l-508 -892h546v-90h-700z" />
    <glyph glyph-name="braceleft" unicode="{" horiz-adv-x="866" 
d="M125 653q9 -3 20 -3q46 0 123 44q115 66 151 195q19 72 19 152q0 44 -6 90q-14 72 -14 135q0 67 16 126q30 112 133 170q65 38 136 38q19 0 38 -3v-75q-18 3 -36 3q-52 0 -101 -27q-75 -43 -97 -126q-15 -55 -15 -125q0 -30 3 -64q16 -76 16 -149q0 -85 -21 -165
q-44 -158 -185 -239q-17 -9 -35 -17q18 -9 35 -18q141 -81 185 -239q21 -80 21 -165q0 -73 -16 -149q-3 -34 -3 -64q0 -70 15 -125q22 -83 97 -125q51 -28 104 -28q16 0 33 2v-74q-19 -3 -38 -3q-71 0 -136 38q-103 58 -133 171q-16 59 -16 126q0 63 14 134q6 46 6 90
q0 80 -19 152q-36 129 -151 195q-77 44 -123 44q-11 0 -20 -3v81z" />
    <glyph glyph-name="bar" unicode="|" horiz-adv-x="390" 
d="M240 1600v-1975h-90v1975h90z" />
    <glyph glyph-name="braceright" unicode="}" horiz-adv-x="866" 
d="M741 572q-9 3 -20 3q-46 0 -123 -44q-115 -66 -151 -195q-19 -72 -19 -152q0 -44 6 -90q14 -71 14 -134q0 -67 -16 -126q-30 -113 -133 -171q-65 -38 -136 -38q-19 0 -38 3v74q17 -2 33 -2q53 0 104 28q75 42 97 125q15 55 15 125q0 30 -3 64q-16 76 -16 149q0 85 21 165
q44 158 185 239q17 9 35 18q-18 8 -35 17q-141 81 -185 239q-21 80 -21 165q0 73 16 149q3 34 3 64q0 70 -15 125q-22 83 -97 126q-49 27 -101 27q-18 0 -36 -3v75q19 3 38 3q71 0 136 -38q103 -58 133 -170q16 -59 16 -126q0 -63 -14 -135q-6 -46 -6 -90q0 -80 19 -152
q36 -129 151 -195q77 -44 123 -44q11 0 20 3v-81z" />
    <glyph glyph-name="asciitilde" unicode="~" horiz-adv-x="1277" 
d="M638 861q188 -109 273 -109q15 0 27 3q77 23 108 100q15 38 15 77l91 -14q-4 -48 -23 -97q-46 -111 -156 -148q-25 -8 -56 -8q-105 0 -278 99q-190 109 -274 109q-14 0 -26 -3q-77 -23 -108 -100q-15 -39 -16 -77l-90 14q2 48 22 97q46 111 157 148q25 8 55 8
q106 0 279 -99z" />
    <glyph glyph-name="exclamdown" unicode="&#xa1;" 
d="M151.5 1465q-26.5 26 -26.5 63q0 38 26.5 64t63.5 26t63.5 -26t26.5 -64q0 -37 -26.5 -63t-63.5 -26t-63.5 26zM172 4v1324h90v-1324h-90z" />
    <glyph glyph-name="cent" unicode="&#xa2;" horiz-adv-x="1013" 
d="M551 705q143 2 246 105q13 13 28 31l87 -32q-26 -35 -52 -62q-129 -129 -309 -131v-154h-90v161q-131 23 -231 124q-131 130 -131 315q0 184 131 315q100 100 231 124v161h90v-154q180 -2 309 -131q26 -27 52 -61l-87 -33q-15 18 -28 32q-103 102 -246 104v-714z
M461 1410q-95 -22 -168 -95q-105 -105 -105 -253t105 -252q73 -74 168 -96v696z" />
    <glyph glyph-name="sterling" unicode="&#xa3;" horiz-adv-x="1130" 
d="M448 555q3 -21 5 -43t2 -44q0 -204 -170 -405q125 45 246 45q72 0 143 -16q99 -23 188 -23q80 0 151 18l17 -89q-81 -20 -168 -20q-89 0 -183 22q-98 21 -173 21q-68 0 -117 -17q-104 -38 -202 -87l-87 103q124 110 156 149q108 128 108 292q0 22 -2 44q-2 25 -6 50h-228
v90h209q-26 95 -75 189q-111 180 -125 343q-2 19 -2 38q0 139 92 249q103 123 266 138q19 1 38 1q139 0 250 -92q124 -105 139 -267q3 -23 3 -44q0 -63 -22 -114l-86 29q15 43 15 95q0 14 -1 28q-12 123 -107 203q-84 70 -190 70q-14 0 -28 -1q-124 -11 -204 -106
q-70 -84 -70 -189q0 -15 1 -30q10 -113 78 -256q86 -138 122 -284h197v-90h-180z" />
    <glyph glyph-name="currency" unicode="&#xa4;" horiz-adv-x="1112" 
d="M303 1462q108 89 253 89t253 -89l139 139l64 -64l-139 -139q89 -108 89 -253t-89 -253l139 -139l-64 -64l-139 139q-108 -89 -253 -89t-253 89l-139 -139l-64 64l139 139q-89 108 -89 253t89 253l-139 139l64 64zM745 1398q-81 63 -189 63t-189 -63q-18 -13 -34 -29
q-17 -17 -30 -35q-63 -81 -63 -189t63 -189q13 -18 30 -34q16 -17 34 -30q81 -63 189 -63t189 63q18 13 35 30q16 16 29 34q63 81 63 189t-63 189q-13 18 -29 35q-17 16 -35 29z" />
    <glyph glyph-name="yen" unicode="&#xa5;" horiz-adv-x="1291" 
d="M650 755l488 845h103l-489 -845h294v-90h-346l-10 -18v-102h356v-90h-356v-455h-90v455h-354v90h354v102l-10 18h-344v90h292l-488 845h103l487 -845h10z" />
    <glyph glyph-name="brokenbar" unicode="&#xa6;" horiz-adv-x="390" 
d="M240 1600v-849h-90v849h90zM240 474v-849h-90v849h90z" />
    <glyph glyph-name="section" unicode="&#xa7;" horiz-adv-x="1158" 
d="M881 345q11 14 26 29q63 63 63 223q0 159 -113 272q-99 99 -243 158q-171 57 -270 156q-43 43 -67 94q-11 -14 -26 -29q-63 -63 -63 -223q0 -159 113 -272q99 -99 243 -158q171 -57 270 -156q43 -43 67 -94zM250 1362q-5 29 -5 61q0 138 99 237.5t240 99.5q140 0 240 -99
q55 -53 76 -119l-81 -32q-18 49 -59 90q-73 72 -176 72t-176 -72.5t-73 -176.5q0 -103 73 -176q68 -67 188 -123q192 -62 323 -193q139 -138 139 -334q0 -197 -89 -286q-36 -36 -61 -51q5 -29 5 -61q0 -138 -99 -237.5t-240 -99.5q-140 0 -240 99q-55 53 -76 119l81 32
q18 -49 59 -90q73 -72 176 -72t176 72.5t73 176.5q0 103 -73 176q-68 67 -188 123q-192 62 -323 193q-139 138 -139 334q0 197 89 286q36 36 61 51z" />
    <glyph glyph-name="dieresis" unicode="&#xa8;" horiz-adv-x="730" 
d="M278.5 1304q26.5 -26 26.5 -63q0 -38 -26.5 -64t-63.5 -26t-63.5 26t-26.5 64q0 37 26.5 63t63.5 26t63.5 -26zM578.5 1304q26.5 -26 26.5 -63q0 -38 -26.5 -64t-63.5 -26t-63.5 26t-26.5 64q0 37 26.5 63t63.5 26t63.5 -26z" />
    <glyph glyph-name="copyright" unicode="&#xa9;" horiz-adv-x="1405" 
d="M917 442l68 -25q-20 -28 -40 -48q-97 -97 -234 -97t-234 97t-97 234t97 234t234 97t234 -97q20 -20 40 -48l-68 -25q-11 14 -21 25q-77 76 -185 76t-185 -76.5t-77 -185.5q0 -108 77 -185t185 -77t185 77q10 10 21 24zM1124 1028q176 -176 176 -425t-176 -425t-424 -176
q-249 0 -425 176t-176 425t176 425t425 176q248 0 424 -176zM700 1133q-220 0 -375 -155t-155 -375q0 -219 155 -374.5t375 -155.5q219 0 374 155.5t155 374.5q0 220 -155 375t-374 155z" />
    <glyph glyph-name="ordfeminine" unicode="&#xaa;" horiz-adv-x="878" 
d="M131 944h575v-31h-606v628h31v-597zM778 1071h-55v85q-2 -3 -17 -19q-80 -79 -192 -79q-113 0 -192 79.5t-79 191.5t79 191.5t192 79.5q112 0 192 -79q15 -16 17 -19v55h55v-486zM723 1286v85q-11 62 -59 109q-62 62 -150 62q-89 0 -151.5 -62.5t-62.5 -150.5
q0 -89 62.5 -151t151.5 -62q88 0 150 62q48 47 59 108z" />
    <glyph glyph-name="guillemotleft" unicode="&#xab;" horiz-adv-x="980" 
d="M444 462l436 460v-104l-331 -356l331 -356v-105zM100 462l429 460v-104l-331 -356l331 -356v-105z" />
    <glyph glyph-name="registered" unicode="&#xae;" horiz-adv-x="1161" 
d="M467 1371v-378h116q78 0 133.5 55.5t55.5 133.5t-55.5 133.5t-133.5 55.5h-116zM730 721l-138 215h-125v-155h-55v644h198q86 -12 146 -72q71 -71 71 -172q0 -102 -71 -174q-50 -49 -104 -62l130 -200q53 30 98 74q124 125 124 300q0 176 -124 300t-299 124
q-176 0 -300 -124t-124 -300q0 -175 124 -300q59 -58 129 -89q28 -13 58 -21q53 -14 113 -14q78 0 149 26zM581 638q-200 0 -340.5 141t-140.5 340t140.5 340t340.5 141q198 0 339 -141t141 -340t-141 -340q-49 -49 -137.5 -95t-201.5 -46z" />
    <glyph glyph-name="macron" unicode="&#xaf;" horiz-adv-x="840" 
d="M125 1427h590v-90h-590v90z" />
    <glyph glyph-name="degree" unicode="&#xb0;" horiz-adv-x="762" 
d="M544.5 1532.5q67.5 -67.5 67.5 -163.5t-67.5 -163.5t-163.5 -67.5t-163.5 67.5t-67.5 163.5t67.5 163.5t163.5 67.5t163.5 -67.5zM381 1529q-66 0 -113 -47t-47 -113t47 -113t113 -47t113 47t47 113t-47 113t-113 47z" />
    <glyph glyph-name="plusminus" unicode="&#xb1;" horiz-adv-x="1050" 
d="M480 547h-355v90h355v355h90v-355h355v-90h-355v-355h-90v355zM125 90h800v-90h-800v90z" />
    <glyph glyph-name="uni00B2" unicode="&#xb2;" horiz-adv-x="899" 
d="M269.5 904.5q109.5 75.5 191.5 132t151 126.5t69 162q0 93 -69 156.5t-164 63.5q-94 0 -162 -63q-60 -55 -71 -148l-90 31q16 98 91 168q96 89 232 89q137 0 231.5 -87.5t94.5 -209.5q0 -120 -91 -211q-62 -62 -145 -119t-189 -130q-97 -68 -119 -162h544v-74h-646
q32 200 141.5 275.5z" />
    <glyph glyph-name="uni00B3" unicode="&#xb3;" horiz-adv-x="899" 
d="M412 1165l-63 1v74q73 0 108 12.5t77.5 54.5t42.5 101t-42.5 98.5t-101.5 39.5q-58 0 -100 -38q-24 -23 -41 -65l-84 30q17 51 55 84q71 65 170 65q101 0 169.5 -64t68.5 -150q0 -88 -51.5 -139t-72.5 -59q71 -22 136 -86q91 -91 91 -212t-94.5 -208.5t-231.5 -87.5
q-136 0 -232 89q-75 69 -91 168l90 30q11 -93 71 -148q68 -62 162 -62q95 0 164 63.5t69 155.5q0 93 -67.5 161t-201.5 92z" />
    <glyph glyph-name="acute" unicode="&#xb4;" horiz-adv-x="629" 
d="M479 1387l-245 -187h-84l163 187h166z" />
    <glyph glyph-name="mu" unicode="&#xb5;" horiz-adv-x="1046" 
d="M808 111l-11 -11q-109 -109 -283 -109q-160 0 -274 110v-476h-90v1357h90v-731q20 -43 60 -83q90 -87 214 -87t215 89q58 57 79 130v682h88v-982h-88v111z" />
    <glyph glyph-name="paragraph" unicode="&#xb6;" horiz-adv-x="1135" 
d="M815 1602v-1977h-90v1021h-152q-216 0 -369 153t-153 370q0 216 153 369q128 128 311 153h80v1h491v-90h-88v-1977h-90v1977h-93z" />
    <glyph glyph-name="periodcentered" unicode="&#xb7;" horiz-adv-x="403" 
d="M255.5 854q22.5 -22 22.5 -54t-22.5 -54t-53.5 -22q-32 0 -54.5 22t-22.5 54t22.5 54t54.5 22q31 0 53.5 -22z" />
    <glyph glyph-name="periodcentered" unicode="&#x2219;" horiz-adv-x="403" 
d="M255.5 854q22.5 -22 22.5 -54t-22.5 -54t-53.5 -22q-32 0 -54.5 22t-22.5 54t22.5 54t54.5 22q31 0 53.5 -22z" />
    <glyph glyph-name="cedilla" unicode="&#xb8;" horiz-adv-x="257" 
d="M156 0l-3 -29l-1 -6h1l-3 -40q14 -7 28 -15q60 -39 68 -94q1 -7 1 -14q0 -45 -43 -78q-51 -39 -130 -39q-34 0 -64 7l11 55q21 -7 46 -7q45 0 74 23q25 19 25 46v7q-5 32 -40 55q-35 21 -77 22l43 107h64z" />
    <glyph glyph-name="uni00B9" unicode="&#xb9;" horiz-adv-x="899" 
d="M530 1600v-980h-90v865h-72l97 115h65z" />
    <glyph glyph-name="ordmasculine" unicode="&#xba;" horiz-adv-x="914" 
d="M529 1116q108 5 166 62q62 62 62 151q0 88 -62 151q-58 57 -166 62q-109 -5 -166 -62q-63 -63 -63 -151q0 -89 63 -151q57 -57 166 -62zM514 1058q-113 0 -192 79.5t-79 191.5t79 191.5t192 79.5h29q113 0 192 -79.5t79 -191.5t-79 -191.5t-192 -79.5h-29zM131 944h575
v-31h-606v628h31v-597z" />
    <glyph glyph-name="guillemotright" unicode="&#xbb;" horiz-adv-x="980" 
d="M100 1v105l331 356l-331 356v104l436 -460zM451 1v105l331 356l-331 356v104l429 -460z" />
    <glyph glyph-name="questiondown" unicode="&#xbf;" horiz-adv-x="956" 
d="M566 1015q40 82 40 166q0 64 -23 129l83 29q28 -80 28 -158q0 -104 -49 -204q-80 -167 -241 -289q-95 -92 -136 -178q-26 -53 -26 -108q0 -41 14 -82q35 -98 128 -143q53 -25 107 -25q41 0 83 15q97 34 142 126q25 52 25 105l88 -4v-8q0 -65 -32 -129q-62 -127 -194 -173
q-58 -20 -114 -20q-74 0 -146 34q-126 61 -172 192q-20 57 -20 113q0 74 35 146q61 127 203 237q117 103 177 229zM566.5 1465q-26.5 26 -26.5 63q0 38 26.5 64t63.5 26t63.5 -26t26.5 -64q0 -37 -26.5 -63t-63.5 -26t-63.5 26z" />
    <glyph glyph-name="Agrave" unicode="&#xc0;" horiz-adv-x="1291" 
d="M890 703l-244 671l-244 -671h488zM923 613h-554l-223 -613h-96l596 1637l595 -1637h-95zM592 2005l163 -187h-84l-245 187h166z" />
    <glyph glyph-name="Aacute" unicode="&#xc1;" horiz-adv-x="1291" 
d="M890 703l-244 671l-244 -671h488zM923 613h-554l-223 -613h-96l596 1637l595 -1637h-95zM865 2005l-245 -187h-84l163 187h166z" />
    <glyph glyph-name="Acircumflex" unicode="&#xc2;" horiz-adv-x="1291" 
d="M890 703l-244 671l-244 -671h488zM923 613h-554l-223 -613h-96l596 1637l595 -1637h-95zM693 1942l238 -234h-104l-186 143l-176 -143h-105l229 234h104z" />
    <glyph glyph-name="Atilde" unicode="&#xc3;" horiz-adv-x="1291" 
d="M890 703l-244 671l-244 -671h488zM923 613h-554l-223 -613h-96l596 1637l595 -1637h-95zM640 1873q75 -60 124 -60h5q50 3 70 84h69q-21 -129 -99 -152q-21 -6 -42 -6q-57 0 -115 46q-75 59 -124 59h-5q-50 -3 -70 -84h-70q22 129 100 152q21 6 42 6q57 0 115 -45z" />
    <glyph glyph-name="Adieresis" unicode="&#xc4;" horiz-adv-x="1291" 
d="M890 703l-244 671l-244 -671h488zM923 613h-554l-223 -613h-96l596 1637l595 -1637h-95zM559.5 1922q26.5 -26 26.5 -63q0 -38 -26.5 -64t-63.5 -26t-63.5 26t-26.5 64q0 37 26.5 63t63.5 26t63.5 -26zM859.5 1922q26.5 -26 26.5 -63q0 -38 -26.5 -64t-63.5 -26t-63.5 26
t-26.5 64q0 37 26.5 63t63.5 26t63.5 -26z" />
    <glyph glyph-name="Aring" unicode="&#xc5;" horiz-adv-x="1291" 
d="M890 703l-244 671l-244 -671h488zM923 613h-554l-223 -613h-96l596 1637l595 -1637h-95zM733 1944q36 -36 36 -87q0 -50 -36 -86t-87 -36t-87 36t-36 86q0 51 36 87t87 36t87 -36zM646 1915q-24 0 -41 -17t-17 -41q0 -23 17 -40t41 -17q23 0 40 17t17 40q0 24 -17 41
t-40 17z" />
    <glyph glyph-name="AE" unicode="&#xc6;" horiz-adv-x="1676" 
d="M1551 1600v-90h-710v-665h710v-90h-710v-665h710v-90h-800v613h-322l-263 -613h-126l711 1597v3h800zM751 1373l-289 -670h289v670z" />
    <glyph glyph-name="Ccedilla" unicode="&#xc7;" horiz-adv-x="1595" 
d="M773 -3q-232 47 -408 224q-240 239 -240 579q0 339 239.5 579t579.5 240q317 0 551 -213l-68 -62q-206 183 -483 183q-301 0 -514 -213t-213 -514q0 -302 213 -515t514 -213q277 0 483 183l68 -61q-234 -213 -551 -213q-55 0 -107 6l-2 -16l-1 -6h1l-3 -40q14 -7 28 -15
q60 -39 68 -94q1 -7 1 -14q0 -45 -43 -78q-51 -39 -130 -39q-34 0 -64 7l11 55q21 -7 46 -7q45 0 74 23q25 19 25 46v7q-5 32 -40 55q-35 21 -77 22z" />
    <glyph glyph-name="Egrave" unicode="&#xc8;" horiz-adv-x="1075" 
d="M950 1600v-90h-710v-665h710v-90h-710v-665h710v-90h-800v1600h800zM497 2005l163 -187h-84l-245 187h166z" />
    <glyph glyph-name="Eacute" unicode="&#xc9;" horiz-adv-x="1075" 
d="M950 1600v-90h-710v-665h710v-90h-710v-665h710v-90h-800v1600h800zM769 2005l-245 -187h-84l163 187h166z" />
    <glyph glyph-name="Ecircumflex" unicode="&#xca;" horiz-adv-x="1075" 
d="M950 1600v-90h-710v-665h710v-90h-710v-665h710v-90h-800v1600h800zM598 1942l238 -234h-104l-186 143l-176 -143h-105l229 234h104z" />
    <glyph glyph-name="Edieresis" unicode="&#xcb;" horiz-adv-x="1075" 
d="M950 1600v-90h-710v-665h710v-90h-710v-665h710v-90h-800v1600h800zM463.5 1922q26.5 -26 26.5 -63q0 -38 -26.5 -64t-63.5 -26t-63.5 26t-26.5 64q0 37 26.5 63t63.5 26t63.5 -26zM763.5 1922q26.5 -26 26.5 -63q0 -38 -26.5 -64t-63.5 -26t-63.5 26t-26.5 64
q0 37 26.5 63t63.5 26t63.5 -26z" />
    <glyph glyph-name="Igrave" unicode="&#xcc;" 
d="M260 1600v-1600h-90v1600h90zM162 2005l163 -187h-84l-245 187h166z" />
    <glyph glyph-name="Iacute" unicode="&#xcd;" 
d="M260 1600v-1600h-90v1600h90zM434 2005l-245 -187h-84l163 187h166z" />
    <glyph glyph-name="Icircumflex" unicode="&#xce;" 
d="M261 1600v-1600h-90v1600h90zM263 1942l238 -234h-104l-186 143l-176 -143h-105l229 234h104z" />
    <glyph glyph-name="Idieresis" unicode="&#xcf;" 
d="M260 1600v-1600h-90v1600h90zM128.5 1922q26.5 -26 26.5 -63q0 -38 -26.5 -64t-63.5 -26t-63.5 26t-26.5 64q0 37 26.5 63t63.5 26t63.5 -26zM428.5 1922q26.5 -26 26.5 -63q0 -38 -26.5 -64t-63.5 -26t-63.5 26t-26.5 64q0 37 26.5 63t63.5 26t63.5 -26z" />
    <glyph glyph-name="Eth" unicode="&#xd0;" horiz-adv-x="1284" 
d="M210 845v755h90v-2h7q395 0 612 -218q240 -241 240 -580q0 -340 -240 -580q-217 -218 -612 -218h-7v-2h-90v755h-160v90h160zM300 845h370v-90h-370v-662h7q356 0 547 192q213 213 213 515q0 301 -213 515q-191 191 -547 191h-7v-661z" />
    <glyph glyph-name="Ntilde" unicode="&#xd1;" horiz-adv-x="1311" 
d="M150 1600h99l822 -1423v1423h90v-1600h-90l-831 1437v-1437h-90v1600zM650 1873q75 -60 124 -60h5q50 3 70 84h69q-21 -129 -99 -152q-21 -6 -42 -6q-57 0 -115 46q-75 59 -124 59h-5q-50 -3 -70 -84h-70q22 129 100 152q21 6 42 6q57 0 115 -45z" />
    <glyph glyph-name="Ograve" unicode="&#xd2;" horiz-adv-x="1892" 
d="M1526.5 1382.5q240.5 -240.5 240.5 -580.5t-240.5 -580.5t-580.5 -240.5t-580.5 240.5t-240.5 580.5t240.5 580.5t580.5 240.5t580.5 -240.5zM946 1531q-302 0 -515.5 -213.5t-213.5 -515.5t213.5 -516t515.5 -214t515.5 214t213.5 516t-213.5 515.5t-515.5 213.5z
M893 2005l163 -187h-84l-245 187h166z" />
    <glyph glyph-name="Oacute" unicode="&#xd3;" horiz-adv-x="1892" 
d="M1526.5 1382.5q240.5 -240.5 240.5 -580.5t-240.5 -580.5t-580.5 -240.5t-580.5 240.5t-240.5 580.5t240.5 580.5t580.5 240.5t580.5 -240.5zM946 1531q-302 0 -515.5 -213.5t-213.5 -515.5t213.5 -516t515.5 -214t515.5 214t213.5 516t-213.5 515.5t-515.5 213.5z
M1165 2005l-245 -187h-84l163 187h166z" />
    <glyph glyph-name="Ocircumflex" unicode="&#xd4;" horiz-adv-x="1892" 
d="M1526.5 1382.5q240.5 -240.5 240.5 -580.5t-240.5 -580.5t-580.5 -240.5t-580.5 240.5t-240.5 580.5t240.5 580.5t580.5 240.5t580.5 -240.5zM946 1531q-302 0 -515.5 -213.5t-213.5 -515.5t213.5 -516t515.5 -214t515.5 214t213.5 516t-213.5 515.5t-515.5 213.5z
M994 1942l238 -234h-104l-186 143l-176 -143h-105l229 234h104z" />
    <glyph glyph-name="Otilde" unicode="&#xd5;" horiz-adv-x="1892" 
d="M1526.5 1382.5q240.5 -240.5 240.5 -580.5t-240.5 -580.5t-580.5 -240.5t-580.5 240.5t-240.5 580.5t240.5 580.5t580.5 240.5t580.5 -240.5zM946 1531q-302 0 -515.5 -213.5t-213.5 -515.5t213.5 -516t515.5 -214t515.5 214t213.5 516t-213.5 515.5t-515.5 213.5z
M941 1873q75 -60 124 -60h5q50 3 70 84h69q-21 -129 -99 -152q-21 -6 -42 -6q-57 0 -115 46q-75 59 -124 59h-5q-50 -3 -70 -84h-70q22 129 100 152q21 6 42 6q57 0 115 -45z" />
    <glyph glyph-name="Odieresis" unicode="&#xd6;" horiz-adv-x="1892" 
d="M1526.5 1382.5q240.5 -240.5 240.5 -580.5t-240.5 -580.5t-580.5 -240.5t-580.5 240.5t-240.5 580.5t240.5 580.5t580.5 240.5t580.5 -240.5zM946 1531q-302 0 -515.5 -213.5t-213.5 -515.5t213.5 -516t515.5 -214t515.5 214t213.5 516t-213.5 515.5t-515.5 213.5z
M859.5 1922q26.5 -26 26.5 -63q0 -38 -26.5 -64t-63.5 -26t-63.5 26t-26.5 64q0 37 26.5 63t63.5 26t63.5 -26zM1159.5 1922q26.5 -26 26.5 -63q0 -38 -26.5 -64t-63.5 -26t-63.5 26t-26.5 64q0 37 26.5 63t63.5 26t63.5 -26z" />
    <glyph glyph-name="multiply" unicode="&#xd7;" horiz-adv-x="1050" 
d="M525 528l-251 -251l-64 64l251 251l-251 251l64 64l251 -251l251 251l63 -64l-251 -251l251 -251l-63 -64z" />
    <glyph glyph-name="Oslash" unicode="&#xd8;" horiz-adv-x="1892" 
d="M1213 1483q-123 48 -267 48q-302 0 -515.5 -213.5t-213.5 -515.5t214 -516q77 -77 166 -127zM678 121q124 -49 268 -49q302 0 515.5 214t213.5 516t-213 516q-78 77 -167 126zM1334 1528q103 -56 193 -145q240 -241 240 -581t-240.5 -580.5t-580.5 -240.5q-165 0 -306 57
l-86 -184l-82 38l86 184q-103 56 -192 146q-241 240 -241 580t240.5 580.5t580.5 240.5q165 0 306 -57l86 184l82 -38z" />
    <glyph glyph-name="Ugrave" unicode="&#xd9;" horiz-adv-x="1345" 
d="M1104 1600h91v-1150q-25 -183 -153 -311q-153 -153 -369 -153q-217 0 -370 153t-153 369v1092h91v-1092q0 -178 126.5 -304.5t305.5 -126.5t305 126.5t126 304.5v1092zM619 2005l163 -187h-84l-245 187h166z" />
    <glyph glyph-name="Uacute" unicode="&#xda;" horiz-adv-x="1345" 
d="M1104 1600h91v-1150q-25 -183 -153 -311q-153 -153 -369 -153q-217 0 -370 153t-153 369v1092h91v-1092q0 -178 126.5 -304.5t305.5 -126.5t305 126.5t126 304.5v1092zM892 2005l-245 -187h-84l163 187h166z" />
    <glyph glyph-name="Ucircumflex" unicode="&#xdb;" horiz-adv-x="1345" 
d="M1104 1600h91v-1150q-25 -183 -153 -311q-153 -153 -369 -153q-217 0 -370 153t-153 369v1092h91v-1092q0 -178 126.5 -304.5t305.5 -126.5t305 126.5t126 304.5v1092zM720 1942l238 -234h-104l-186 143l-176 -143h-105l229 234h104z" />
    <glyph glyph-name="Udieresis" unicode="&#xdc;" horiz-adv-x="1345" 
d="M1104 1600h91v-1150q-25 -183 -153 -311q-153 -153 -369 -153q-217 0 -370 153t-153 369v1092h91v-1092q0 -178 126.5 -304.5t305.5 -126.5t305 126.5t126 304.5v1092zM586.5 1922q26.5 -26 26.5 -63q0 -38 -26.5 -64t-63.5 -26t-63.5 26t-26.5 64q0 37 26.5 63t63.5 26
t63.5 -26zM886.5 1922q26.5 -26 26.5 -63q0 -38 -26.5 -64t-63.5 -26t-63.5 26t-26.5 64q0 37 26.5 63t63.5 26t63.5 -26z" />
    <glyph glyph-name="Yacute" unicode="&#xdd;" horiz-adv-x="1291" 
d="M600 647l-550 953h103l492 -853l493 853h103l-551 -953v-647h-90v647zM865 2005l-245 -187h-84l163 187h166z" />
    <glyph glyph-name="Thorn" unicode="&#xde;" horiz-adv-x="1124" 
d="M240 1323h330q183 -25 311 -153q153 -153 153 -369q0 -217 -153 -370t-369 -153h-272v-278h-90v1600h90v-277zM240 369h272q178 0 304.5 126.5t126.5 305.5t-126.5 305t-304.5 126h-272v-863z" />
    <glyph glyph-name="germandbls" unicode="&#xdf;" horiz-adv-x="1084" 
d="M431 1608h16q121 0 206 -70q91 -75 99 -227v-17q0 -140 -129 -222q358 -143 371 -521q0 -227 -160 -393q-149 -154 -356 -157v-1h-167v90h167v-1q167 11 288 137q133 137 133 325t-133 321t-355 133v96q139 7 196 59.5t57 141.5q0 88 -56 152q-53 60 -151 60h-11
q-106 -4 -158 -65.5t-58 -182.5v-1266h-90v1281q10 162 85 242t206 85z" />
    <glyph glyph-name="agrave" unicode="&#xe0;" horiz-adv-x="1360" 
d="M1210 0h-90v200q-26 -35 -57 -67q-161 -161 -389 -161q-227 0 -388 161t-161 388q0 228 161 389t388 161q228 0 389 -161q31 -32 57 -67v139h90v-982zM1120 432v178q-25 132 -125 232q-133 133 -321 133t-321 -133t-133 -321t133 -320.5t321 -132.5t321 133
q100 100 125 231zM614 1387l163 -187h-84l-245 187h166z" />
    <glyph glyph-name="aacute" unicode="&#xe1;" horiz-adv-x="1360" 
d="M1210 0h-90v200q-26 -35 -57 -67q-161 -161 -389 -161q-227 0 -388 161t-161 388q0 228 161 389t388 161q228 0 389 -161q31 -32 57 -67v139h90v-982zM1120 432v178q-25 132 -125 232q-133 133 -321 133t-321 -133t-133 -321t133 -320.5t321 -132.5t321 133
q100 100 125 231zM887 1387l-245 -187h-84l163 187h166z" />
    <glyph glyph-name="acircumflex" unicode="&#xe2;" horiz-adv-x="1360" 
d="M1210 0h-90v200q-26 -35 -57 -67q-161 -161 -389 -161q-227 0 -388 161t-161 388q0 228 161 389t388 161q228 0 389 -161q31 -32 57 -67v139h90v-982zM1120 432v178q-25 132 -125 232q-133 133 -321 133t-321 -133t-133 -321t133 -320.5t321 -132.5t321 133
q100 100 125 231zM715 1324l238 -234h-104l-186 143l-176 -143h-105l229 234h104z" />
    <glyph glyph-name="atilde" unicode="&#xe3;" horiz-adv-x="1360" 
d="M1210 0h-90v200q-26 -35 -57 -67q-161 -161 -389 -161q-227 0 -388 161t-161 388q0 228 161 389t388 161q228 0 389 -161q31 -32 57 -67v139h90v-982zM1120 432v178q-25 132 -125 232q-133 133 -321 133t-321 -133t-133 -321t133 -320.5t321 -132.5t321 133
q100 100 125 231zM662 1255q75 -60 124 -60h5q50 3 70 84h69q-21 -129 -99 -152q-21 -6 -42 -6q-57 0 -115 46q-75 59 -124 59h-5q-50 -3 -70 -84h-70q22 129 100 152q21 6 42 6q57 0 115 -45z" />
    <glyph glyph-name="adieresis" unicode="&#xe4;" horiz-adv-x="1360" 
d="M1210 0h-90v200q-26 -35 -57 -67q-161 -161 -389 -161q-227 0 -388 161t-161 388q0 228 161 389t388 161q228 0 389 -161q31 -32 57 -67v139h90v-982zM1120 432v178q-25 132 -125 232q-133 133 -321 133t-321 -133t-133 -321t133 -320.5t321 -132.5t321 133
q100 100 125 231zM581.5 1304q26.5 -26 26.5 -63q0 -38 -26.5 -64t-63.5 -26t-63.5 26t-26.5 64q0 37 26.5 63t63.5 26t63.5 -26zM881.5 1304q26.5 -26 26.5 -63q0 -38 -26.5 -64t-63.5 -26t-63.5 26t-26.5 64q0 37 26.5 63t63.5 26t63.5 -26z" />
    <glyph glyph-name="aring" unicode="&#xe5;" horiz-adv-x="1360" 
d="M1210 0h-90v200q-26 -35 -57 -67q-161 -161 -389 -161q-227 0 -388 161t-161 388q0 228 161 389t388 161q228 0 389 -161q31 -32 57 -67v139h90v-982zM1120 432v178q-25 132 -125 232q-133 133 -321 133t-321 -133t-133 -321t133 -320.5t321 -132.5t321 133
q100 100 125 231zM755 1326q36 -36 36 -87q0 -50 -36 -86t-87 -36t-87 36t-36 86q0 51 36 87t87 36t87 -36zM668 1297q-24 0 -41 -17t-17 -41q0 -23 17 -40t41 -17q23 0 40 17t17 40q0 24 -17 41t-40 17z" />
    <glyph glyph-name="ae" unicode="&#xe6;" horiz-adv-x="2171" 
d="M1038 739q-30 55 -78 103q-133 133 -321 133t-321 -133t-133 -321t133 -320.5t321 -132.5t321 133q48 48 78 102q34 60 47 129v178q-13 69 -47 129zM1973 663q-32 103 -108 179q-133 133 -321 133t-321 -133q-27 -27 -48 -55v-124h798zM1175 256q21 -29 48 -55
q133 -133 321 -133t321 133q23 23 43 48l96 -34q-17 -28 -71 -82q-161 -161 -389 -161q-214 0 -369 143v-115h-90v200q-26 -35 -57 -67q-161 -161 -389 -161q-227 0 -388 161t-161 388q0 228 161 389t388 161q228 0 389 -161q31 -32 57 -67v139h90v-54q155 143 369 143
q228 0 389 -161q142 -143 148 -338l-906 1v-317z" />
    <glyph glyph-name="ccedilla" unicode="&#xe7;" horiz-adv-x="1177" 
d="M544 -20q-167 27 -293 153q-161 161 -161 389q0 227 161 388t388 161q228 0 389 -161q33 -33 59 -68l-95 -35q-15 18 -32 36q-133 132 -321 132q-187 0 -320 -132.5t-133 -320.5t133 -321t320 -133q188 0 321 133q17 17 32 35l95 -34q-26 -36 -59 -69
q-161 -161 -389 -161q-13 0 -26 1v-2l-1 -6h1l-3 -40q14 -7 28 -15q60 -39 68 -94q1 -7 1 -14q0 -45 -43 -78q-51 -39 -130 -39q-34 0 -64 7l11 55q21 -7 46 -7q45 0 74 23q25 19 25 46v7q-5 32 -40 55q-35 21 -77 22z" />
    <glyph glyph-name="egrave" unicode="&#xe8;" horiz-adv-x="1177" 
d="M337 184q127 -116 302 -116q188 0 321 133q17 17 32 35l95 -34q-26 -36 -59 -69q-161 -161 -389 -161q-227 0 -388 161t-161 389q0 227 161 388t388 161q195 0 341 -117q24 -20 48 -44q9 -9 17 -18l-68 -68zM911 885q-117 90 -272 90q-187 0 -320 -132.5t-133 -320.5
q0 -155 90 -272zM535 1387l163 -187h-84l-245 187h166z" />
    <glyph glyph-name="eacute" unicode="&#xe9;" horiz-adv-x="1177" 
d="M337 184q127 -116 302 -116q188 0 321 133q17 17 32 35l95 -34q-26 -36 -59 -69q-161 -161 -389 -161q-227 0 -388 161t-161 389q0 227 161 388t388 161q195 0 341 -117q24 -20 48 -44q9 -9 17 -18l-68 -68zM911 885q-117 90 -272 90q-187 0 -320 -132.5t-133 -320.5
q0 -155 90 -272zM808 1387l-245 -187h-84l163 187h166z" />
    <glyph glyph-name="ecircumflex" unicode="&#xea;" horiz-adv-x="1177" 
d="M337 184q127 -116 302 -116q188 0 321 133q17 17 32 35l95 -34q-26 -36 -59 -69q-161 -161 -389 -161q-227 0 -388 161t-161 389q0 227 161 388t388 161q195 0 341 -117q24 -20 48 -44q9 -9 17 -18l-68 -68zM911 885q-117 90 -272 90q-187 0 -320 -132.5t-133 -320.5
q0 -155 90 -272zM636 1324l238 -234h-104l-186 143l-176 -143h-105l229 234h104z" />
    <glyph glyph-name="edieresis" unicode="&#xeb;" horiz-adv-x="1177" 
d="M337 184q127 -116 302 -116q188 0 321 133q17 17 32 35l95 -34q-26 -36 -59 -69q-161 -161 -389 -161q-227 0 -388 161t-161 389q0 227 161 388t388 161q195 0 341 -117q24 -20 48 -44q9 -9 17 -18l-68 -68zM911 885q-117 90 -272 90q-187 0 -320 -132.5t-133 -320.5
q0 -155 90 -272zM502.5 1304q26.5 -26 26.5 -63q0 -38 -26.5 -64t-63.5 -26t-63.5 26t-26.5 64q0 37 26.5 63t63.5 26t63.5 -26zM802.5 1304q26.5 -26 26.5 -63q0 -38 -26.5 -64t-63.5 -26t-63.5 26t-26.5 64q0 37 26.5 63t63.5 26t63.5 -26z" />
    <glyph glyph-name="igrave" unicode="&#xec;" 
d="M260 982v-982h-90v982h90zM162 1387l163 -187h-84l-245 187h166z" />
    <glyph glyph-name="iacute" unicode="&#xed;" 
d="M260 982v-982h-90v982h90zM434 1387l-245 -187h-84l163 187h166z" />
    <glyph glyph-name="icircumflex" unicode="&#xee;" 
d="M261 982v-982h-90v982h90zM263 1324l238 -234h-104l-186 143l-176 -143h-105l229 234h104z" />
    <glyph glyph-name="idieresis" unicode="&#xef;" 
d="M260 982v-982h-90v982h90zM128.5 1304q26.5 -26 26.5 -63q0 -38 -26.5 -64t-63.5 -26t-63.5 26t-26.5 64q0 37 26.5 63t63.5 26t63.5 -26zM428.5 1304q26.5 -26 26.5 -63q0 -38 -26.5 -64t-63.5 -26t-63.5 26t-26.5 64q0 37 26.5 63t63.5 26t63.5 -26z" />
    <glyph glyph-name="eth" unicode="&#xf0;" horiz-adv-x="1278" 
d="M185 521q0 -188 133 -320.5t321 -132.5t321 132.5t133 320.5t-133 321t-321 133t-321 -133t-133 -321zM957 971q37 -27 71 -61q160 -161 160 -389q0 -227 -160.5 -388t-388.5 -161q-227 0 -388 161t-161 388q0 228 161 389t388 161q33 0 65 -3l-54 60h-168v90h87
l-104 115h128l115 -115h164v-90h-73z" />
    <glyph glyph-name="ntilde" unicode="&#xf1;" horiz-adv-x="1071" 
d="M240 763v-763h-90v982h90v-63q123 122 286 122q174 0 283 -109t112 -275v-657h-90v649q0 125 -90.5 213.5t-214.5 88.5t-214 -87q-49 -49 -72 -101zM530 1255q75 -60 124 -60h5q50 3 70 84h69q-21 -129 -99 -152q-21 -6 -42 -6q-57 0 -115 46q-75 59 -124 59h-5
q-50 -3 -70 -84h-70q22 129 100 152q21 6 42 6q57 0 115 -45z" />
    <glyph glyph-name="ograve" unicode="&#xf2;" horiz-adv-x="1278" 
d="M639 1071q228 0 388.5 -161t160.5 -389q0 -227 -160.5 -388t-388.5 -161q-227 0 -388 161t-161 388q0 228 161 389t388 161zM318 842q-133 -133 -133 -321t133 -320.5t321 -132.5t321 132.5t133 320.5t-133 321t-321 133t-321 -133zM586 1387l163 -187h-84l-245 187h166z
" />
    <glyph glyph-name="oacute" unicode="&#xf3;" horiz-adv-x="1278" 
d="M639 1071q228 0 388.5 -161t160.5 -389q0 -227 -160.5 -388t-388.5 -161q-227 0 -388 161t-161 388q0 228 161 389t388 161zM318 842q-133 -133 -133 -321t133 -320.5t321 -132.5t321 132.5t133 320.5t-133 321t-321 133t-321 -133zM858 1387l-245 -187h-84l163 187h166z
" />
    <glyph glyph-name="ocircumflex" unicode="&#xf4;" horiz-adv-x="1278" 
d="M639 1071q228 0 388.5 -161t160.5 -389q0 -227 -160.5 -388t-388.5 -161q-227 0 -388 161t-161 388q0 228 161 389t388 161zM318 842q-133 -133 -133 -321t133 -320.5t321 -132.5t321 132.5t133 320.5t-133 321t-321 133t-321 -133zM687 1324l238 -234h-104l-186 143
l-176 -143h-105l229 234h104z" />
    <glyph glyph-name="otilde" unicode="&#xf5;" horiz-adv-x="1278" 
d="M639 1071q228 0 388.5 -161t160.5 -389q0 -227 -160.5 -388t-388.5 -161q-227 0 -388 161t-161 388q0 228 161 389t388 161zM318 842q-133 -133 -133 -321t133 -320.5t321 -132.5t321 132.5t133 320.5t-133 321t-321 133t-321 -133zM634 1255q75 -60 124 -60h5
q50 3 70 84h69q-21 -129 -99 -152q-21 -6 -42 -6q-57 0 -115 46q-75 59 -124 59h-5q-50 -3 -70 -84h-70q22 129 100 152q21 6 42 6q57 0 115 -45z" />
    <glyph glyph-name="odieresis" unicode="&#xf6;" horiz-adv-x="1278" 
d="M639 1071q228 0 388.5 -161t160.5 -389q0 -227 -160.5 -388t-388.5 -161q-227 0 -388 161t-161 388q0 228 161 389t388 161zM318 842q-133 -133 -133 -321t133 -320.5t321 -132.5t321 132.5t133 320.5t-133 321t-321 133t-321 -133zM552.5 1304q26.5 -26 26.5 -63
q0 -38 -26.5 -64t-63.5 -26t-63.5 26t-26.5 64q0 37 26.5 63t63.5 26t63.5 -26zM852.5 1304q26.5 -26 26.5 -63q0 -38 -26.5 -64t-63.5 -26t-63.5 26t-26.5 64q0 37 26.5 63t63.5 26t63.5 -26z" />
    <glyph glyph-name="divide" unicode="&#xf7;" horiz-adv-x="1050" 
d="M125 659h800v-90h-800v90zM588.5 877q26.5 -26 26.5 -63q0 -38 -26.5 -64t-63.5 -26t-63.5 26t-26.5 64q0 37 26.5 63t63.5 26t63.5 -26zM588.5 477q26.5 -26 26.5 -63q0 -38 -26.5 -64t-63.5 -26t-63.5 26t-26.5 64q0 37 26.5 63t63.5 26t63.5 -26z" />
    <glyph glyph-name="oslash" unicode="&#xf8;" horiz-adv-x="1278" 
d="M827 937q-86 39 -188 39q-188 0 -321 -133t-133 -321t133 -320q27 -28 57 -49zM904 891l-453 -783q86 -39 188 -39q188 0 321 132.5t133 320.5t-133 321q-27 27 -56 48zM327 70q-40 28 -76 64q-161 161 -161 388q0 228 161 389t388 161q129 0 237 -52l122 212l79 -41
l-125 -216q40 -28 76 -64q160 -161 160 -389q0 -227 -160.5 -388t-388.5 -161q-129 0 -236 52l-123 -213l-79 38z" />
    <glyph glyph-name="ugrave" unicode="&#xf9;" horiz-adv-x="1099" 
d="M555 -14q-184 0 -293 109t-112 275v612h90v-604q0 -125 91 -213q90 -89 223 -89q124 0 214.5 88.5t90.5 213.5v604h90v-612q-3 -166 -112 -275t-282 -109zM496 1387l163 -187h-84l-245 187h166z" />
    <glyph glyph-name="uacute" unicode="&#xfa;" horiz-adv-x="1099" 
d="M555 -14q-184 0 -293 109t-112 275v612h90v-604q0 -125 91 -213q90 -89 223 -89q124 0 214.5 88.5t90.5 213.5v604h90v-612q-3 -166 -112 -275t-282 -109zM769 1387l-245 -187h-84l163 187h166z" />
    <glyph glyph-name="ucircumflex" unicode="&#xfb;" horiz-adv-x="1099" 
d="M555 -14q-184 0 -293 109t-112 275v612h90v-604q0 -125 91 -213q90 -89 223 -89q124 0 214.5 88.5t90.5 213.5v604h90v-612q-3 -166 -112 -275t-282 -109zM597 1324l238 -234h-104l-186 143l-176 -143h-105l229 234h104z" />
    <glyph glyph-name="udieresis" unicode="&#xfc;" horiz-adv-x="1099" 
d="M555 -14q-184 0 -293 109t-112 275v612h90v-604q0 -125 91 -213q90 -89 223 -89q124 0 214.5 88.5t90.5 213.5v604h90v-612q-3 -166 -112 -275t-282 -109zM463.5 1304q26.5 -26 26.5 -63q0 -38 -26.5 -64t-63.5 -26t-63.5 26t-26.5 64q0 37 26.5 63t63.5 26t63.5 -26z
M763.5 1304q26.5 -26 26.5 -63q0 -38 -26.5 -64t-63.5 -26t-63.5 26t-26.5 64q0 37 26.5 63t63.5 26t63.5 -26z" />
    <glyph glyph-name="yacute" unicode="&#xfd;" horiz-adv-x="1005" 
d="M503 88l-222 -463h-88l265 556l-383 801h102l326 -704l326 704h101l-427 -895v1zM722 1387l-245 -187h-84l163 187h166z" />
    <glyph glyph-name="thorn" unicode="&#xfe;" horiz-adv-x="1334" 
d="M240 844q25 34 57 66q161 160 388 160q228 0 388.5 -160.5t160.5 -388.5q0 -227 -160.5 -388t-388.5 -161q-227 0 -388 161q-32 32 -57 66v-574h-90v1975h90v-756zM240 427q26 -129 124 -227q133 -133 321 -133t321 133t133 321t-133 321t-321 133t-321 -133
q-98 -98 -124 -227v-188z" />
    <glyph glyph-name="ydieresis" unicode="&#xff;" horiz-adv-x="1005" 
d="M503 88l-222 -463h-88l265 556l-383 801h102l326 -704l326 704h101l-427 -895v1zM416.5 1304q26.5 -26 26.5 -63q0 -38 -26.5 -64t-63.5 -26t-63.5 26t-26.5 64q0 37 26.5 63t63.5 26t63.5 -26zM716.5 1304q26.5 -26 26.5 -63q0 -38 -26.5 -64t-63.5 -26t-63.5 26
t-26.5 64q0 37 26.5 63t63.5 26t63.5 -26z" />
    <glyph glyph-name="Amacron" unicode="&#x100;" horiz-adv-x="1291" 
d="M890 703l-244 671l-244 -671h488zM923 613h-554l-223 -613h-96l596 1637l595 -1637h-95zM351 1845h590v-70h-590v70z" />
    <glyph glyph-name="amacron" unicode="&#x101;" horiz-adv-x="1360" 
d="M1210 0h-90v200q-26 -35 -57 -67q-161 -161 -389 -161q-227 0 -388 161t-161 388q0 228 161 389t388 161q228 0 389 -161q31 -32 57 -67v139h90v-982zM1120 432v178q-25 132 -125 232q-133 133 -321 133t-321 -133t-133 -321t133 -320.5t321 -132.5t321 133
q100 100 125 231zM373 1227h590v-70h-590v70z" />
    <glyph glyph-name="Abreve" unicode="&#x102;" horiz-adv-x="1291" 
d="M890 703l-244 671l-244 -671h488zM923 613h-554l-223 -613h-96l596 1637l595 -1637h-95zM485 1956q8 -53 46 -91q48 -48 116 -48q67 0 115 48q39 38 46 91h73q-8 -83 -68 -143q-68 -69 -166 -69q-99 0 -167 69q-65 66 -69 143h74z" />
    <glyph glyph-name="abreve" unicode="&#x103;" horiz-adv-x="1360" 
d="M1210 0h-90v200q-26 -35 -57 -67q-161 -161 -389 -161q-227 0 -388 161t-161 388q0 228 161 389t388 161q228 0 389 -161q31 -32 57 -67v139h90v-982zM1120 432v178q-25 132 -125 232q-133 133 -321 133t-321 -133t-133 -321t133 -320.5t321 -132.5t321 133
q100 100 125 231zM507 1338q8 -53 46 -91q48 -48 116 -48q67 0 115 48q39 38 46 91h73q-8 -83 -68 -143q-68 -69 -166 -69q-99 0 -167 69q-65 66 -69 143h74z" />
    <glyph glyph-name="Aogonek" unicode="&#x104;" horiz-adv-x="1291" 
d="M890 703l-244 671l-244 -671h488zM1131 41l-208 572h-554l-223 -613h-96l596 1637l595 -1637h-95q-75 -38 -85 -102q-2 -18 -2 -34q0 -48 22 -74q30 -36 80 -36q30 0 58 14l22 -50q-56 -23 -111 -23q-73 0 -117 49q-35 39 -35 96q0 14 2 29q14 99 151 172z" />
    <glyph glyph-name="aogonek" unicode="&#x105;" horiz-adv-x="1360" 
d="M1120 432v178q-25 132 -125 232q-133 133 -321 133t-321 -133t-133 -321t133 -320.5t321 -132.5t321 133q100 100 125 231zM1120 46v154q-26 -35 -57 -67q-161 -161 -389 -161q-227 0 -388 161t-161 388q0 228 161 389t388 161q228 0 389 -161q31 -32 57 -67v139h90v-982
h-90q-71 -39 -80 -102q-2 -18 -2 -34q0 -48 22 -74q30 -36 80 -36q30 0 58 14l22 -50q-56 -23 -111 -23q-73 0 -117 49q-35 39 -35 96q0 14 2 29q15 103 161 177z" />
    <glyph glyph-name="Cacute" unicode="&#x106;" horiz-adv-x="1595" 
d="M1427 255l68 -61q-234 -213 -551 -213q-340 0 -579.5 239.5t-239.5 579.5q0 339 239.5 579t579.5 240q317 0 551 -213l-68 -62q-206 183 -483 183q-301 0 -514 -213t-213 -514q0 -302 213 -515t514 -213q277 0 483 183zM1129 2005l-245 -187h-84l163 187h166z" />
    <glyph glyph-name="cacute" unicode="&#x107;" horiz-adv-x="1177" 
d="M992 236l95 -34q-26 -36 -59 -69q-161 -161 -389 -161q-227 0 -388 161t-161 389q0 227 161 388t388 161q228 0 389 -161q33 -33 59 -68l-95 -35q-15 18 -32 36q-133 132 -321 132q-187 0 -320 -132.5t-133 -320.5t133 -321t320 -133q188 0 321 133q17 17 32 35z
M858 1387l-245 -187h-84l163 187h166z" />
    <glyph glyph-name="Ccircumflex" unicode="&#x108;" horiz-adv-x="1595" 
d="M1427 255l68 -61q-234 -213 -551 -213q-340 0 -579.5 239.5t-239.5 579.5q0 339 239.5 579t579.5 240q317 0 551 -213l-68 -62q-206 183 -483 183q-301 0 -514 -213t-213 -514q0 -302 213 -515t514 -213q277 0 483 183zM958 1942l238 -234h-104l-186 143l-176 -143h-105
l229 234h104z" />
    <glyph glyph-name="ccircumflex" unicode="&#x109;" horiz-adv-x="1177" 
d="M992 236l95 -34q-26 -36 -59 -69q-161 -161 -389 -161q-227 0 -388 161t-161 389q0 227 161 388t388 161q228 0 389 -161q33 -33 59 -68l-95 -35q-15 18 -32 36q-133 132 -321 132q-187 0 -320 -132.5t-133 -320.5t133 -321t320 -133q188 0 321 133q17 17 32 35z
M686 1324l238 -234h-104l-186 143l-176 -143h-105l229 234h104z" />
    <glyph glyph-name="Cdotaccent" unicode="&#x10a;" horiz-adv-x="1595" 
d="M1427 255l68 -61q-234 -213 -551 -213q-340 0 -579.5 239.5t-239.5 579.5q0 339 239.5 579t579.5 240q317 0 551 -213l-68 -62q-206 183 -483 183q-301 0 -514 -213t-213 -514q0 -302 213 -515t514 -213q277 0 483 183zM994.5 1899q22.5 -22 22.5 -54t-22.5 -54
t-53.5 -22q-32 0 -54.5 22t-22.5 54t22.5 54t54.5 22q31 0 53.5 -22z" />
    <glyph glyph-name="cdotaccent" unicode="&#x10b;" horiz-adv-x="1177" 
d="M992 236l95 -34q-26 -36 -59 -69q-161 -161 -389 -161q-227 0 -388 161t-161 389q0 227 161 388t388 161q228 0 389 -161q33 -33 59 -68l-95 -35q-15 18 -32 36q-133 132 -321 132q-187 0 -320 -132.5t-133 -320.5t133 -321t320 -133q188 0 321 133q17 17 32 35z
M692.5 1281q22.5 -22 22.5 -54t-22.5 -54t-53.5 -22q-32 0 -54.5 22t-22.5 54t22.5 54t54.5 22q31 0 53.5 -22z" />
    <glyph glyph-name="Ccaron" unicode="&#x10c;" horiz-adv-x="1595" 
d="M1427 255l68 -61q-234 -213 -551 -213q-340 0 -579.5 239.5t-239.5 579.5q0 339 239.5 579t579.5 240q317 0 551 -213l-68 -62q-206 183 -483 183q-301 0 -514 -213t-213 -514q0 -302 213 -515t514 -213q277 0 483 183zM754 1708l-229 234h105l176 -143l186 143h104
l-238 -234h-104z" />
    <glyph glyph-name="ccaron" unicode="&#x10d;" horiz-adv-x="1177" 
d="M992 236l95 -34q-26 -36 -59 -69q-161 -161 -389 -161q-227 0 -388 161t-161 389q0 227 161 388t388 161q228 0 389 -161q33 -33 59 -68l-95 -35q-15 18 -32 36q-133 132 -321 132q-187 0 -320 -132.5t-133 -320.5t133 -321t320 -133q188 0 321 133q17 17 32 35z
M532 1090l-229 234h105l176 -143l186 143h104l-238 -234h-104z" />
    <glyph glyph-name="Dcaron" unicode="&#x10e;" horiz-adv-x="1199" 
d="M240 1506v-1413h7q356 0 547 192q213 213 213 515q0 301 -213 515q-191 191 -547 191h-7zM240 1598h7q395 0 612 -218q240 -241 240 -580q0 -340 -240 -580q-217 -218 -612 -218h-7v-2h-90v1600h90v-2zM568 1608l-229 234h105l176 -143l186 143h104l-238 -234h-104z" />
    <glyph glyph-name="dcaron" unicode="&#x10f;" horiz-adv-x="1470" 
d="M1210 0h-90v200q-26 -35 -57 -67q-161 -161 -389 -161q-227 0 -388 161t-161 388q0 228 161 389t388 161q228 0 389 -161q31 -32 57 -67v757h90v-1600zM1120 432v178q-25 132 -125 232q-133 133 -321 133t-321 -133t-133 -321t133 -320.5t321 -132.5t321 133
q100 100 125 231zM1357 1427q-23 5 -40 23q-27 26 -27 64q0 37 26.5 63t63.5 26t63.5 -26t26.5 -63q0 -21 -7 -39l-98 -198h-65z" />
    <glyph glyph-name="Dcroat" unicode="&#x110;" horiz-adv-x="1284" 
d="M210 845v755h90v-2h7q395 0 612 -218q240 -241 240 -580q0 -340 -240 -580q-217 -218 -612 -218h-7v-2h-90v755h-160v90h160zM300 845h370v-90h-370v-662h7q356 0 547 192q213 213 213 515q0 301 -213 515q-191 191 -547 191h-7v-661z" />
    <glyph glyph-name="dcroat" unicode="&#x111;" horiz-adv-x="1360" 
d="M1120 432v178q-25 132 -125 232q-133 133 -321 133t-321 -133t-133 -321t133 -320.5t321 -132.5t321 133q100 100 125 231zM1210 1283v-1283h-90v200q-26 -35 -57 -67q-161 -161 -389 -161q-227 0 -388 161t-161 388q0 228 161 389t388 161q228 0 389 -161q31 -32 57 -67
v440h-291v90h291v227h90v-227h99v-90h-99z" />
    <glyph glyph-name="Emacron" unicode="&#x112;" horiz-adv-x="1075" 
d="M950 1600v-90h-710v-665h710v-90h-710v-665h710v-90h-800v1600h800zM255 1845h590v-70h-590v70z" />
    <glyph glyph-name="emacron" unicode="&#x113;" horiz-adv-x="1177" 
d="M337 184q127 -116 302 -116q188 0 321 133q17 17 32 35l95 -34q-26 -36 -59 -69q-161 -161 -389 -161q-227 0 -388 161t-161 389q0 227 161 388t388 161q195 0 341 -117q24 -20 48 -44q9 -9 17 -18l-68 -68zM911 885q-117 90 -272 90q-187 0 -320 -132.5t-133 -320.5
q0 -155 90 -272zM294 1227h590v-70h-590v70z" />
    <glyph glyph-name="Ebreve" unicode="&#x114;" horiz-adv-x="1075" 
d="M950 1600v-90h-710v-665h710v-90h-710v-665h710v-90h-800v1600h800zM389 1956q8 -53 46 -91q48 -48 116 -48q67 0 115 48q39 38 46 91h73q-8 -83 -68 -143q-68 -69 -166 -69q-99 0 -167 69q-65 66 -69 143h74z" />
    <glyph glyph-name="ebreve" unicode="&#x115;" horiz-adv-x="1177" 
d="M337 184q127 -116 302 -116q188 0 321 133q17 17 32 35l95 -34q-26 -36 -59 -69q-161 -161 -389 -161q-227 0 -388 161t-161 389q0 227 161 388t388 161q195 0 341 -117q24 -20 48 -44q9 -9 17 -18l-68 -68zM911 885q-117 90 -272 90q-187 0 -320 -132.5t-133 -320.5
q0 -155 90 -272zM428 1338q8 -53 46 -91q48 -48 116 -48q67 0 115 48q39 38 46 91h73q-8 -83 -68 -143q-68 -69 -166 -69q-99 0 -167 69q-65 66 -69 143h74z" />
    <glyph glyph-name="Edotaccent" unicode="&#x116;" horiz-adv-x="1075" 
d="M950 1600v-90h-710v-665h710v-90h-710v-665h710v-90h-800v1600h800zM604.5 1899q22.5 -22 22.5 -54t-22.5 -54t-53.5 -22q-32 0 -54.5 22t-22.5 54t22.5 54t54.5 22q31 0 53.5 -22z" />
    <glyph glyph-name="edotaccent" unicode="&#x117;" horiz-adv-x="1177" 
d="M337 184q127 -116 302 -116q188 0 321 133q17 17 32 35l95 -34q-26 -36 -59 -69q-161 -161 -389 -161q-227 0 -388 161t-161 389q0 227 161 388t388 161q195 0 341 -117q24 -20 48 -44q9 -9 17 -18l-68 -68zM911 885q-117 90 -272 90q-187 0 -320 -132.5t-133 -320.5
q0 -155 90 -272zM642.5 1281q22.5 -22 22.5 -54t-22.5 -54t-53.5 -22q-32 0 -54.5 22t-22.5 54t22.5 54t54.5 22q31 0 53.5 -22z" />
    <glyph glyph-name="Eogonek" unicode="&#x118;" horiz-adv-x="1075" 
d="M776 0h-626v1600h800v-90h-710v-665h710v-90h-710v-665h710v-90h-107q-64 -42 -73 -102q-2 -18 -2 -34q0 -48 22 -74q30 -36 80 -36q30 0 58 14l22 -50q-56 -23 -111 -23q-73 0 -117 49q-35 39 -35 96q0 14 2 29q10 73 87 131z" />
    <glyph glyph-name="eogonek" unicode="&#x119;" horiz-adv-x="1177" 
d="M911 885q-117 90 -272 90q-187 0 -320 -132.5t-133 -320.5q0 -155 90 -272zM894 28q-133 -56 -255 -56q-227 0 -388 161t-161 389q0 227 161 388t388 161q195 0 341 -117q24 -20 48 -44q9 -9 17 -18l-68 -68l-640 -640q127 -116 302 -116q188 0 321 133q17 17 32 35
l95 -34q-26 -36 -59 -69q-36 -36 -74 -63q-67 -108 -77 -173q-2 -18 -2 -34q0 -48 22 -74q30 -36 80 -36q30 0 58 14l22 -50q-56 -23 -111 -23q-73 0 -117 49q-35 39 -35 96q0 14 2 29q9 65 98 160z" />
    <glyph glyph-name="Ecaron" unicode="&#x11a;" horiz-adv-x="1075" 
d="M950 1600v-90h-710v-665h710v-90h-710v-665h710v-90h-800v1600h800zM494 1708l-229 234h105l176 -143l186 143h104l-238 -234h-104z" />
    <glyph glyph-name="ecaron" unicode="&#x11b;" horiz-adv-x="1177" 
d="M337 184q127 -116 302 -116q188 0 321 133q17 17 32 35l95 -34q-26 -36 -59 -69q-161 -161 -389 -161q-227 0 -388 161t-161 389q0 227 161 388t388 161q195 0 341 -117q24 -20 48 -44q9 -9 17 -18l-68 -68zM911 885q-117 90 -272 90q-187 0 -320 -132.5t-133 -320.5
q0 -155 90 -272zM532 1090l-229 234h105l176 -143l186 143h104l-238 -234h-104z" />
    <glyph glyph-name="Gcircumflex" unicode="&#x11c;" horiz-adv-x="1620" 
d="M1489 199q-228 -218 -545 -218q-340 0 -579.5 239.5t-239.5 579.5q0 339 239.5 579t579.5 240q317 0 551 -213l-68 -62q-206 183 -483 183q-301 0 -514 -213t-213 -514q0 -302 213 -515t514 -213q258 0 455 159v488h90v-520zM958 1942l238 -234h-104l-186 143l-176 -143
h-105l229 234h104z" />
    <glyph glyph-name="gcircumflex" unicode="&#x11d;" horiz-adv-x="1364" 
d="M1119 615q-26 129 -124 227q-133 133 -321 133t-321 -133t-133 -321t133 -321t321 -133t321 133q97 97 124 225v190zM1117 195q-25 -32 -54 -62q-161 -161 -389 -161q-227 0 -388 161t-161 388q0 228 161 388.5t388 160.5q228 0 389 -160q31 -32 57 -67v139h90v-763
q0 -221 -157 -378q-161 -161 -388 -161q-228 0 -389 161q-33 33 -59 69l95 34q15 -18 32 -35q133 -133 321 -133q187 0 320 133q121 121 132 286zM715 1324l238 -234h-104l-186 143l-176 -143h-105l229 234h104z" />
    <glyph glyph-name="Gbreve" unicode="&#x11e;" horiz-adv-x="1620" 
d="M1489 199q-228 -218 -545 -218q-340 0 -579.5 239.5t-239.5 579.5q0 339 239.5 579t579.5 240q317 0 551 -213l-68 -62q-206 183 -483 183q-301 0 -514 -213t-213 -514q0 -302 213 -515t514 -213q258 0 455 159v488h90v-520zM789 1956q8 -53 46 -91q48 -48 116 -48
q67 0 115 48q39 38 46 91h73q-8 -83 -68 -143q-68 -69 -166 -69q-99 0 -167 69q-65 66 -69 143h74z" />
    <glyph glyph-name="gbreve" unicode="&#x11f;" horiz-adv-x="1364" 
d="M1119 615q-26 129 -124 227q-133 133 -321 133t-321 -133t-133 -321t133 -321t321 -133t321 133q97 97 124 225v190zM1117 195q-25 -32 -54 -62q-161 -161 -389 -161q-227 0 -388 161t-161 388q0 228 161 388.5t388 160.5q228 0 389 -160q31 -32 57 -67v139h90v-763
q0 -221 -157 -378q-161 -161 -388 -161q-228 0 -389 161q-33 33 -59 69l95 34q15 -18 32 -35q133 -133 321 -133q187 0 320 133q121 121 132 286zM507 1338q8 -53 46 -91q48 -48 116 -48q67 0 115 48q39 38 46 91h73q-8 -83 -68 -143q-68 -69 -166 -69q-99 0 -167 69
q-65 66 -69 143h74z" />
    <glyph glyph-name="Gdotaccent" unicode="&#x120;" horiz-adv-x="1620" 
d="M1489 199q-228 -218 -545 -218q-340 0 -579.5 239.5t-239.5 579.5q0 339 239.5 579t579.5 240q317 0 551 -213l-68 -62q-206 183 -483 183q-301 0 -514 -213t-213 -514q0 -302 213 -515t514 -213q258 0 455 159v488h90v-520zM994.5 1899q22.5 -22 22.5 -54t-22.5 -54
t-53.5 -22q-32 0 -54.5 22t-22.5 54t22.5 54t54.5 22q31 0 53.5 -22z" />
    <glyph glyph-name="gdotaccent" unicode="&#x121;" horiz-adv-x="1364" 
d="M1119 615q-26 129 -124 227q-133 133 -321 133t-321 -133t-133 -321t133 -321t321 -133t321 133q97 97 124 225v190zM1117 195q-25 -32 -54 -62q-161 -161 -389 -161q-227 0 -388 161t-161 388q0 228 161 388.5t388 160.5q228 0 389 -160q31 -32 57 -67v139h90v-763
q0 -221 -157 -378q-161 -161 -388 -161q-228 0 -389 161q-33 33 -59 69l95 34q15 -18 32 -35q133 -133 321 -133q187 0 320 133q121 121 132 286zM721.5 1281q22.5 -22 22.5 -54t-22.5 -54t-53.5 -22q-32 0 -54.5 22t-22.5 54t22.5 54t54.5 22q31 0 53.5 -22z" />
    <glyph glyph-name="Gcommaaccent" unicode="&#x122;" horiz-adv-x="1620" 
d="M773 -3q-232 47 -408 224q-240 239 -240 579q0 339 239.5 579t579.5 240q317 0 551 -213l-68 -62q-206 183 -483 183q-301 0 -514 -213t-213 -514q0 -302 213 -515t514 -213q258 0 455 159v488h90v-520q-228 -218 -545 -218q-55 0 -107 6l-2 -16l-1 -6h1l-3 -40
q14 -7 28 -15q60 -39 68 -94q1 -7 1 -14q0 -45 -43 -78q-51 -39 -130 -39q-34 0 -64 7l11 55q21 -7 46 -7q45 0 74 23q25 19 25 46v7q-5 32 -40 55q-35 21 -77 22z" />
    <glyph glyph-name="gcommaaccent" unicode="&#x123;" horiz-adv-x="1364" 
d="M1119 615q-26 129 -124 227q-133 133 -321 133t-321 -133t-133 -321t133 -321t321 -133t321 133q97 97 124 225v190zM1117 195q-25 -32 -54 -62q-161 -161 -389 -161q-227 0 -388 161t-161 388q0 228 161 388.5t388 160.5q228 0 389 -160q31 -32 57 -67v139h90v-763
q0 -221 -157 -378q-161 -161 -388 -161q-228 0 -389 161q-33 33 -59 69l95 34q15 -18 32 -35q133 -133 321 -133q187 0 320 133q121 121 132 286zM717 1311q23 -5 40 -23q27 -26 27 -64q0 -37 -26.5 -63t-63.5 -26t-63.5 26t-26.5 63q0 21 7 39l98 198h65z" />
    <glyph glyph-name="Hcircumflex" unicode="&#x124;" horiz-adv-x="1150" 
d="M240 717v-717h-90v1600h90v-793h670v793h90v-1600h-90v717h-670zM623 1942l238 -234h-104l-186 143l-176 -143h-105l229 234h104z" />
    <glyph glyph-name="hcircumflex" unicode="&#x125;" horiz-adv-x="1059" 
d="M150 1600h90v-669q114 110 274 110q174 0 283 -109t112 -275v-657h-90v649q0 125 -90.5 213.5t-214.5 88.5t-214 -87q-40 -40 -60 -83v-781h-90v1600zM623 1942l238 -234h-104l-186 143l-176 -143h-105l229 234h104z" />
    <glyph glyph-name="Hbar" unicode="&#x126;" horiz-adv-x="1140" 
d="M995 1310v-1310h-90v717h-670v-717h-90v1310h-75v90h75v200h90v-200h670v200h90v-200h75v-90h-75zM235 1310v-503h670v503h-670z" />
    <glyph glyph-name="hbar" unicode="&#x127;" horiz-adv-x="1059" 
d="M150 1373v227h90v-227h410v-90h-410v-352q114 110 274 110q174 0 283 -109t112 -275v-657h-90v649q0 125 -90.5 213.5t-214.5 88.5t-214 -87q-40 -40 -60 -83v-781h-90v1283h-100v90h100z" />
    <glyph glyph-name="Itilde" unicode="&#x128;" 
d="M261 1600v-1600h-90v1600h90zM210 1873q75 -60 124 -60h5q50 3 70 84h69q-21 -129 -99 -152q-21 -6 -42 -6q-57 0 -115 46q-75 59 -124 59h-5q-50 -3 -70 -84h-70q22 129 100 152q21 6 42 6q57 0 115 -45z" />
    <glyph glyph-name="itilde" unicode="&#x129;" 
d="M261 982v-982h-90v982h90zM210 1255q75 -60 124 -60h5q50 3 70 84h69q-21 -129 -99 -152q-21 -6 -42 -6q-57 0 -115 46q-75 59 -124 59h-5q-50 -3 -70 -84h-70q22 129 100 152q21 6 42 6q57 0 115 -45z" />
    <glyph glyph-name="Imacron" unicode="&#x12a;" 
d="M260 1600v-1600h-90v1600h90zM-80 1845h590v-70h-590v70z" />
    <glyph glyph-name="imacron" unicode="&#x12b;" 
d="M260 982v-982h-90v982h90zM-80 1227h590v-70h-590v70z" />
    <glyph glyph-name="Ibreve" unicode="&#x12c;" 
d="M260 1600v-1600h-90v1600h90zM54 1956q8 -53 46 -91q48 -48 116 -48q67 0 115 48q39 38 46 91h73q-8 -83 -68 -143q-68 -69 -166 -69q-99 0 -167 69q-65 66 -69 143h74z" />
    <glyph glyph-name="ibreve" unicode="&#x12d;" 
d="M260 982v-982h-90v982h90zM54 1338q8 -53 46 -91q48 -48 116 -48q67 0 115 48q39 38 46 91h73q-8 -83 -68 -143q-68 -69 -166 -69q-99 0 -167 69q-65 66 -69 143h74z" />
    <glyph glyph-name="Iogonek" unicode="&#x12e;" 
d="M170 10v1590h90v-1600h-37q-64 -42 -73 -102q-2 -18 -2 -34q0 -48 22 -74q30 -36 80 -36q30 0 58 14l22 -50q-56 -23 -111 -23q-73 0 -117 49q-35 39 -35 96q0 14 2 29q11 79 101 141z" />
    <glyph glyph-name="iogonek" unicode="&#x12f;" 
d="M278.5 1304q26.5 -26 26.5 -63q0 -38 -26.5 -64t-63.5 -26t-63.5 26t-26.5 64q0 37 26.5 63t63.5 26t63.5 -26zM170 7v975h90v-982h-32q-64 -42 -73 -102q-2 -18 -2 -34q0 -48 22 -74q30 -36 80 -36q30 0 58 14l22 -50q-56 -23 -111 -23q-73 0 -117 49q-35 39 -35 96
q0 14 2 29q11 77 96 138z" />
    <glyph glyph-name="dotlessi" unicode="&#x131;" 
d="M260 982v-982h-90v982h90z" />
    <glyph glyph-name="IJ" unicode="&#x132;" horiz-adv-x="1287" 
d="M260 1600v-1600h-90v1600h90zM1132 304q0 -152 -80 -232q-85 -86 -206 -86t-206 85.5t-85 187.5l59 23q20 -108 85 -162q54 -46 122 -46q12 0 25 2q83 0 143 59q53 53 53 179v1286h90v-1296z" />
    <glyph glyph-name="ij" unicode="&#x133;" horiz-adv-x="885" 
d="M260 982v-982h-90v982h90zM278.5 1304q26.5 -26 26.5 -63q0 -38 -26.5 -64t-63.5 -26t-63.5 26t-26.5 64q0 37 26.5 63t63.5 26t63.5 -26zM479 -138q121 14 121 136v984h90v-982q0 -211 -211 -228v90zM708.5 1304q26.5 -26 26.5 -63q0 -38 -26.5 -64t-63.5 -26t-63.5 26
t-26.5 64q0 37 26.5 63t63.5 26t63.5 -26z" />
    <glyph glyph-name="Jcircumflex" unicode="&#x134;" horiz-adv-x="857" 
d="M702 304q0 -152 -80 -232q-85 -86 -206 -86t-206 85.5t-85 187.5l59 23q20 -108 85 -162q54 -46 122 -46q12 0 25 2q83 0 143 59q53 53 53 179v1286h90v-1296zM681 1942l238 -234h-104l-186 143l-176 -143h-105l229 234h104z" />
    <glyph glyph-name="jcircumflex" unicode="&#x135;" 
d="M263 1324l238 -234h-104l-186 143l-176 -143h-105l229 234h104zM49 -138q121 14 121 136v984h90v-982q0 -211 -211 -228v90z" />
    <glyph glyph-name="Kcommaaccent" unicode="&#x136;" horiz-adv-x="1131" 
d="M862 1600l-415 -601l699 -999h-109l-647 924l-172 -246v-678h-91v1600h91v-766l535 766h109zM604 -57q85 0 118 -26q45 -35 45 -84v-10q-6 -55 -69 -102q-56 -31 -118 -31q-35 0 -73 10l19 58q32 -13 62 -13q35 0 68 17q28 21 34 49q1 6 1 12q0 21 -16 37q-20 19 -71 20
v63z" />
    <glyph glyph-name="kcommaaccent" unicode="&#x137;" horiz-adv-x="823" 
d="M629 982l-242 -300l386 -682h-112l-333 610l-88 -109v-501h-90v1400h90v-755l273 337h116zM429 -57q85 0 117 -26q46 -35 46 -84v-10q-6 -55 -69 -102q-56 -31 -118 -31q-35 0 -74 10l20 58q31 -13 62 -13q35 0 68 17q28 21 34 49q1 6 1 12q0 21 -16 37q-20 19 -71 20v63
z" />
    <glyph glyph-name="kgreenlandic" unicode="&#x138;" horiz-adv-x="823" 
d="M629 982l-242 -300l386 -682h-112l-333 610l-88 -109v-501h-90v982h90v-337l273 337h116z" />
    <glyph glyph-name="Lacute" unicode="&#x139;" horiz-adv-x="886" 
d="M127 0v1600h91v-1510h609v-90h-700zM697 1904l-245 -187h-84l163 187h166z" />
    <glyph glyph-name="lacute" unicode="&#x13a;" horiz-adv-x="340" 
d="M216 1600v-1600h-90v1600h90zM335 1945l-245 -187h-84l163 187h166z" />
    <glyph glyph-name="Lcommaaccent" unicode="&#x13b;" horiz-adv-x="886" 
d="M492 0h-365v1600h91v-1510h609v-90h-271l-3 -29l-1 -6h1l-3 -40q14 -7 28 -15q60 -39 68 -94q1 -7 1 -14q0 -45 -43 -78q-51 -39 -130 -39q-34 0 -64 7l11 55q21 -7 46 -7q45 0 74 23q25 19 25 46v7q-5 32 -40 55q-35 21 -77 22z" />
    <glyph glyph-name="lcommaaccent" unicode="&#x13c;" horiz-adv-x="497" 
d="M152 0h-25v1600h91v-1600h-2l-3 -29l-1 -6h1l-3 -40q14 -7 28 -15q60 -39 68 -94q1 -7 1 -14q0 -45 -43 -78q-51 -39 -130 -39q-34 0 -64 7l11 55q21 -7 46 -7q45 0 74 23q25 19 25 46v7q-5 32 -40 55q-35 21 -77 22z" />
    <glyph glyph-name="Lcaron" unicode="&#x13d;" horiz-adv-x="886" 
d="M127 0v1600h91v-1510h609v-90h-700zM667 1435q-23 4 -40 22q-27 26 -27 65q0 37 26.5 62.5t63.5 25.5t63.5 -25.5t26.5 -62.5q0 -22 -7 -40l-98 -198h-65z" />
    <glyph glyph-name="lcaron" unicode="&#x13e;" horiz-adv-x="497" 
d="M218 1600v-1600h-91v1600h91zM384 1435q-23 4 -40 22q-27 26 -27 65q0 37 26.5 62.5t64.5 25.5q36 0 62.5 -25.5t26.5 -62.5q0 -22 -7 -40l-98 -198h-65z" />
    <glyph glyph-name="Ldot" unicode="&#x13f;" horiz-adv-x="886" 
d="M127 0v1600h91v-1510h609v-90h-700zM759.5 853.5q22.5 -22.5 22.5 -53.5q0 -32 -22.5 -54t-53.5 -22t-54 22t-23 54q0 31 23 53.5t54 22.5t53.5 -22.5z" />
    <glyph glyph-name="ldot" unicode="&#x140;" horiz-adv-x="498" 
d="M203 1600v-1600h-91v1600h91zM445.5 853.5q22.5 -22.5 22.5 -53.5q0 -32 -22.5 -54t-52.5 -22q-32 0 -54.5 22t-22.5 54q0 31 22.5 53.5t54.5 22.5q30 0 52.5 -22.5z" />
    <glyph glyph-name="Lslash" unicode="&#x141;" horiz-adv-x="986" 
d="M319 787l455 370v-106l-455 -370v-591h610v-90h-700v606l-229 -185v106l229 186v887h90v-813z" />
    <glyph glyph-name="lslash" unicode="&#x142;" horiz-adv-x="425" 
d="M167 805v795h91v-721l167 137v-106l-167 -137v-773h-91v699l-167 -137v107z" />
    <glyph glyph-name="Nacute" unicode="&#x143;" horiz-adv-x="1311" 
d="M150 1600h99l822 -1423v1423h90v-1600h-90l-831 1437v-1437h-90v1600zM875 2005l-245 -187h-84l163 187h166z" />
    <glyph glyph-name="nacute" unicode="&#x144;" horiz-adv-x="1071" 
d="M240 763v-763h-90v982h90v-63q123 122 286 122q174 0 283 -109t112 -275v-657h-90v649q0 125 -90.5 213.5t-214.5 88.5t-214 -87q-49 -49 -72 -101zM755 1387l-245 -187h-84l163 187h166z" />
    <glyph glyph-name="Ncommaaccent" unicode="&#x145;" horiz-adv-x="1311" 
d="M150 1600h99l822 -1423v1423h90v-1600h-90l-831 1437v-1437h-90v1600zM623 -57q85 0 117 -26q46 -35 46 -84v-10q-6 -55 -69 -102q-56 -31 -118 -31q-35 0 -74 10l20 58q31 -13 62 -13q35 0 68 17q28 21 34 49q1 6 1 12q0 21 -16 37q-20 19 -71 20v63z" />
    <glyph glyph-name="ncommaaccent" unicode="&#x146;" horiz-adv-x="1071" 
d="M240 763v-763h-90v982h90v-63q123 122 286 122q174 0 283 -109t112 -275v-657h-90v649q0 125 -90.5 213.5t-214.5 88.5t-214 -87q-49 -49 -72 -101zM503 -57q85 0 117 -26q46 -35 46 -84v-10q-6 -55 -69 -102q-56 -31 -118 -31q-35 0 -74 10l20 58q31 -13 62 -13
q35 0 68 17q28 21 34 49q1 6 1 12q0 21 -16 37q-20 19 -71 20v63z" />
    <glyph glyph-name="Ncaron" unicode="&#x147;" horiz-adv-x="1311" 
d="M150 1600h99l822 -1423v1423h90v-1600h-90l-831 1437v-1437h-90v1600zM599 1708l-229 234h105l176 -143l186 143h104l-238 -234h-104z" />
    <glyph glyph-name="ncaron" unicode="&#x148;" horiz-adv-x="1071" 
d="M240 763v-763h-90v982h90v-63q123 122 286 122q174 0 283 -109t112 -275v-657h-90v649q0 125 -90.5 213.5t-214.5 88.5t-214 -87q-49 -49 -72 -101zM479 1090l-229 234h105l176 -143l186 143h104l-238 -234h-104z" />
    <glyph glyph-name="napostrophe" unicode="&#x149;" horiz-adv-x="1071" 
d="M240 763v-763h-90v982h90v-63q123 122 286 122q174 0 283 -109t112 -275v-657h-90v649q0 125 -90.5 213.5t-214.5 88.5t-214 -87q-49 -49 -72 -101zM88 1402q-23 4 -40 22q-27 26 -27 65q0 37 26.5 62.5t64.5 25.5q36 0 62.5 -25.5t26.5 -62.5q0 -22 -7 -40l-98 -198h-65
z" />
    <glyph glyph-name="Eng" unicode="&#x14a;" horiz-adv-x="1311" 
d="M1070 2l-830 1435v-1437h-90v1600h99l821 -1421v765h1v656h90v-1600h-1q-10 -277 -151 -346l-41 45q105 95 105 249q0 26 -3 54z" />
    <glyph glyph-name="eng" unicode="&#x14b;" horiz-adv-x="1071" 
d="M831 544v105q0 125 -90.5 213.5t-214.5 88.5t-214 -87q-49 -49 -72 -101v-763h-90v982h90v-63q123 122 286 122q174 0 283 -109t112 -275v-657h-1q-20 -249 -151 -346l-40 40q82 57 101 266v584h1z" />
    <glyph glyph-name="Omacron" unicode="&#x14c;" horiz-adv-x="1892" 
d="M1526.5 1382.5q240.5 -240.5 240.5 -580.5t-240.5 -580.5t-580.5 -240.5t-580.5 240.5t-240.5 580.5t240.5 580.5t580.5 240.5t580.5 -240.5zM946 1531q-302 0 -515.5 -213.5t-213.5 -515.5t213.5 -516t515.5 -214t515.5 214t213.5 516t-213.5 515.5t-515.5 213.5z
M651 1845h590v-70h-590v70z" />
    <glyph glyph-name="omacron" unicode="&#x14d;" horiz-adv-x="1278" 
d="M639 1071q228 0 388.5 -161t160.5 -389q0 -227 -160.5 -388t-388.5 -161q-227 0 -388 161t-161 388q0 228 161 389t388 161zM318 842q-133 -133 -133 -321t133 -320.5t321 -132.5t321 132.5t133 320.5t-133 321t-321 133t-321 -133zM344 1227h590v-70h-590v70z" />
    <glyph glyph-name="Obreve" unicode="&#x14e;" horiz-adv-x="1892" 
d="M1526.5 1382.5q240.5 -240.5 240.5 -580.5t-240.5 -580.5t-580.5 -240.5t-580.5 240.5t-240.5 580.5t240.5 580.5t580.5 240.5t580.5 -240.5zM946 1531q-302 0 -515.5 -213.5t-213.5 -515.5t213.5 -516t515.5 -214t515.5 214t213.5 516t-213.5 515.5t-515.5 213.5z
M785 1956q8 -53 46 -91q48 -48 116 -48q67 0 115 48q39 38 46 91h73q-8 -83 -68 -143q-68 -69 -166 -69q-99 0 -167 69q-65 66 -69 143h74z" />
    <glyph glyph-name="obreve" unicode="&#x14f;" horiz-adv-x="1278" 
d="M639 1071q228 0 388.5 -161t160.5 -389q0 -227 -160.5 -388t-388.5 -161q-227 0 -388 161t-161 388q0 228 161 389t388 161zM318 842q-133 -133 -133 -321t133 -320.5t321 -132.5t321 132.5t133 320.5t-133 321t-321 133t-321 -133zM478 1338q8 -53 46 -91
q48 -48 116 -48q67 0 115 48q39 38 46 91h73q-8 -83 -68 -143q-68 -69 -166 -69q-99 0 -167 69q-65 66 -69 143h74z" />
    <glyph glyph-name="Ohungarumlaut" unicode="&#x150;" horiz-adv-x="1892" 
d="M1526.5 1382.5q240.5 -240.5 240.5 -580.5t-240.5 -580.5t-580.5 -240.5t-580.5 240.5t-240.5 580.5t240.5 580.5t580.5 240.5t580.5 -240.5zM946 1531q-302 0 -515.5 -213.5t-213.5 -515.5t213.5 -516t515.5 -214t515.5 214t213.5 516t-213.5 515.5t-515.5 213.5z
M996 1966l-245 -187h-84l163 187h166zM1225 1966l-245 -187h-84l163 187h166z" />
    <glyph glyph-name="ohungarumlaut" unicode="&#x151;" horiz-adv-x="1278" 
d="M639 1071q228 0 388.5 -161t160.5 -389q0 -227 -160.5 -388t-388.5 -161q-227 0 -388 161t-161 388q0 228 161 389t388 161zM318 842q-133 -133 -133 -321t133 -320.5t321 -132.5t321 132.5t133 320.5t-133 321t-321 133t-321 -133zM689 1348l-245 -187h-84l163 187h166z
M918 1348l-245 -187h-84l163 187h166z" />
    <glyph glyph-name="OE" unicode="&#x152;" horiz-adv-x="2295" 
d="M1330 1510q86 -52 162 -127q225 -226 239 -538h439v-90h-439q-16 -310 -239 -533q-79 -79 -168 -132h846v-90h-1000q-121 -19 -259 -19q-340 0 -580.5 240.5t-240.5 580.5t240.5 580.5t580.5 240.5q138 0 259 -23h1000v-90h-840zM1639 845q-14 274 -212 473
q-78 77 -167 126q-44 24 -90 42q-120 45 -259 45q-302 0 -515.5 -213.5t-213.5 -515.5t213.5 -516t515.5 -214q139 0 259 45q46 18 90 42q89 49 167 127q196 197 212 469q1 23 1 47q0 22 -1 43z" />
    <glyph glyph-name="oe" unicode="&#x153;" horiz-adv-x="2127" 
d="M185 521q0 -188 133 -320.5t321 -132.5t321 132.5t133 320.5t-133 321t-321 133t-321 -133t-133 -321zM1126 779q29 -55 45 -116h758q-32 103 -108 179q-133 133 -321 133t-321 -133q-30 -30 -53 -63zM1125 263q24 -32 54 -62q133 -133 321 -133t321 133q23 23 43 48
l96 -34q-17 -28 -71 -82q-161 -161 -389 -161q-227 0 -388 161q-23 23 -42 47q-20 -24 -42 -47q-161 -161 -389 -161q-227 0 -388 161t-161 388q0 228 161 389t388 161q228 0 389 -161q22 -23 42 -47q19 24 42 47q161 161 388 161q228 0 389 -161q142 -143 148 -338l-851 1
q2 -26 2 -52q0 -142 -63 -258z" />
    <glyph glyph-name="Racute" unicode="&#x154;" horiz-adv-x="1089" 
d="M240 1509v-863h272q178 0 304.5 126.5t126.5 305.5t-126.5 305t-304.5 126h-272zM539 556q-13 -1 -27 -1h-272v-555h-90v1600h420q183 -25 311 -153q153 -153 153 -369q0 -217 -153 -370q-106 -106 -243 -139l369 -569h-111zM811 2005l-245 -187h-84l163 187h166z" />
    <glyph glyph-name="racute" unicode="&#x155;" horiz-adv-x="599" 
d="M150 982h90v-179q28 40 65 77q119 119 244 125v-98q-85 -4 -176 -95q-128 -127 -133 -305v-507h-90v982zM569 1387l-245 -187h-84l163 187h166z" />
    <glyph glyph-name="Rcommaaccent" unicode="&#x156;" horiz-adv-x="1085" 
d="M218 1508v-862h271q178 0 304.5 126t126.5 306q0 179 -126.5 304.5t-304.5 125.5h-271zM516 555q-13 -1 -27 -1h-271v-554h-91v1600h420q183 -25 311 -153q153 -154 153 -369q0 -217 -153 -370q-106 -106 -243 -139l369 -569h-111zM462 -57q85 0 118 -26q45 -35 45 -84
v-10q-6 -55 -69 -102q-56 -31 -118 -31q-35 0 -73 10l19 58q32 -13 62 -13q35 0 68 17q28 21 34 49q1 6 1 12q0 21 -16 37q-20 19 -71 20v63z" />
    <glyph glyph-name="rcommaaccent" unicode="&#x157;" horiz-adv-x="459" 
d="M459 903q-73 -15 -149 -92q-128 -127 -132 -304v-507h-91v982h91v-179q27 40 64 77q83 83 168 110zM122 -57q85 0 118 -26q45 -35 45 -84v-10q-5 -55 -69 -102q-55 -31 -117 -31q-36 0 -74 10l19 58q32 -13 62 -13q36 0 68 17q29 21 34 49q1 6 1 12q0 21 -15 37
q-21 19 -72 20v63z" />
    <glyph glyph-name="Rcaron" unicode="&#x158;" horiz-adv-x="1089" 
d="M240 1509v-863h272q178 0 304.5 126.5t126.5 305.5t-126.5 305t-304.5 126h-272zM539 556q-13 -1 -27 -1h-272v-555h-90v1600h420q183 -25 311 -153q153 -153 153 -369q0 -217 -153 -370q-106 -106 -243 -139l369 -569h-111zM536 1708l-229 234h105l176 -143l186 143h104
l-238 -234h-104z" />
    <glyph glyph-name="rcaron" unicode="&#x159;" horiz-adv-x="599" 
d="M150 982h90v-179q28 40 65 77q119 119 244 125v-98q-85 -4 -176 -95q-128 -127 -133 -305v-507h-90v982zM293 1090l-229 234h105l176 -143l186 143h104l-238 -234h-104z" />
    <glyph glyph-name="Sacute" unicode="&#x15a;" horiz-adv-x="1042" 
d="M548 886q-171 57 -270 156t-99 240q0 138 99 237.5t240 99.5q140 0 240 -99q55 -53 76 -119l-81 -32q-18 49 -59 90q-73 72 -176 72t-176 -72.5t-73 -176.5q0 -103 73 -176q68 -67 188 -123q192 -62 323 -193q139 -138 139 -334q0 -197 -139 -336t-335 -139t-335 140
q-111 111 -133 258l85 31q14 -130 111 -227q113 -113 272 -113q160 0 273 113t113 273q0 159 -113 272q-99 99 -243 158zM740 2005l-245 -187h-84l163 187h166z" />
    <glyph glyph-name="sacute" unicode="&#x15b;" horiz-adv-x="802" 
d="M420 505q-115 62 -159 106q-69 69 -69 166q0 98 69 167.5t166 69.5q98 0 162 -64q62 -63 62 -143v-5l-78 -31q-10 76 -47.5 114t-98.5 38q-60 0 -103 -42.5t-43 -103.5q0 -60 43 -103q25 -25 106 -76q128 -70 182 -124q85 -86 85 -205q0 -122 -85 -207.5t-206 -85.5
t-206 85.5t-85 187.5l89 23q0 -88 59.5 -147t142.5 -59t142.5 59t59.5 144q0 83 -59 142q-32 32 -129 94zM625 1387l-245 -187h-84l163 187h166z" />
    <glyph glyph-name="Scircumflex" unicode="&#x15c;" horiz-adv-x="1042" 
d="M548 886q-171 57 -270 156t-99 240q0 138 99 237.5t240 99.5q140 0 240 -99q55 -53 76 -119l-81 -32q-18 49 -59 90q-73 72 -176 72t-176 -72.5t-73 -176.5q0 -103 73 -176q68 -67 188 -123q192 -62 323 -193q139 -138 139 -334q0 -197 -139 -336t-335 -139t-335 140
q-111 111 -133 258l85 31q14 -130 111 -227q113 -113 272 -113q160 0 273 113t113 273q0 159 -113 272q-99 99 -243 158zM569 1942l238 -234h-104l-186 143l-176 -143h-105l229 234h104z" />
    <glyph glyph-name="scircumflex" unicode="&#x15d;" horiz-adv-x="802" 
d="M420 505q-115 62 -159 106q-69 69 -69 166q0 98 69 167.5t166 69.5q98 0 162 -64q62 -63 62 -143v-5l-78 -31q-10 76 -47.5 114t-98.5 38q-60 0 -103 -42.5t-43 -103.5q0 -60 43 -103q25 -25 106 -76q128 -70 182 -124q85 -86 85 -205q0 -122 -85 -207.5t-206 -85.5
t-206 85.5t-85 187.5l89 23q0 -88 59.5 -147t142.5 -59t142.5 59t59.5 144q0 83 -59 142q-32 32 -129 94zM454 1324l238 -234h-104l-186 143l-176 -143h-105l229 234h104z" />
    <glyph glyph-name="Scedilla" unicode="&#x15e;" horiz-adv-x="1042" 
d="M478 -17q-170 13 -295 138q-111 111 -133 258l85 31q14 -130 111 -227q113 -113 272 -113q160 0 273 113t113 273q0 159 -113 272q-99 99 -243 158q-171 57 -270 156t-99 240q0 138 99 237.5t240 99.5q140 0 240 -99q55 -53 76 -119l-81 -32q-18 49 -59 90
q-73 72 -176 72t-176 -72.5t-73 -176.5q0 -103 73 -176q68 -67 188 -123q192 -62 323 -193q139 -138 139 -334q0 -197 -139 -336q-129 -129 -306 -138l-1 -11l-1 -6h1l-3 -40q14 -7 28 -15q60 -39 68 -94q1 -7 1 -14q0 -45 -43 -78q-51 -39 -130 -39q-34 0 -64 7l11 55
q21 -7 46 -7q45 0 74 23q25 19 25 46v7q-5 32 -40 55q-35 21 -77 22z" />
    <glyph glyph-name="scedilla" unicode="&#x15f;" horiz-adv-x="802" 
d="M362 -21q-93 13 -162 83q-85 85 -85 187l89 23q0 -88 59.5 -147t142.5 -59t142.5 59t59.5 144q0 83 -59 142q-32 32 -129 94q-115 62 -159 106q-69 69 -69 166q0 98 69 167.5t166 69.5q98 0 162 -64q62 -63 62 -143v-5l-78 -31q-10 76 -47.5 114t-98.5 38
q-60 0 -103 -42.5t-43 -103.5q0 -60 43 -103q25 -25 106 -76q128 -70 182 -124q85 -86 85 -205q0 -122 -85 -207q-76 -77 -180 -85l-1 -6l-1 -6h1l-3 -40q14 -7 28 -15q60 -39 68 -94q1 -7 1 -14q0 -45 -43 -78q-51 -39 -130 -39q-34 0 -64 7l11 55q21 -7 46 -7q45 0 74 23
q25 19 25 46v7q-5 32 -40 55q-35 21 -77 22z" />
    <glyph glyph-name="Scaron" unicode="&#x160;" horiz-adv-x="1042" 
d="M548 886q-171 57 -270 156t-99 240q0 138 99 237.5t240 99.5q140 0 240 -99q55 -53 76 -119l-81 -32q-18 49 -59 90q-73 72 -176 72t-176 -72.5t-73 -176.5q0 -103 73 -176q68 -67 188 -123q192 -62 323 -193q139 -138 139 -334q0 -197 -139 -336t-335 -139t-335 140
q-111 111 -133 258l85 31q14 -130 111 -227q113 -113 272 -113q160 0 273 113t113 273q0 159 -113 272q-99 99 -243 158zM465 1708l-229 234h105l176 -143l186 143h104l-238 -234h-104z" />
    <glyph glyph-name="scaron" unicode="&#x161;" horiz-adv-x="802" 
d="M420 505q-115 62 -159 106q-69 69 -69 166q0 98 69 167.5t166 69.5q98 0 162 -64q62 -63 62 -143v-5l-78 -31q-10 76 -47.5 114t-98.5 38q-60 0 -103 -42.5t-43 -103.5q0 -60 43 -103q25 -25 106 -76q128 -70 182 -124q85 -86 85 -205q0 -122 -85 -207.5t-206 -85.5
t-206 85.5t-85 187.5l89 23q0 -88 59.5 -147t142.5 -59t142.5 59t59.5 144q0 83 -59 142q-32 32 -129 94zM350 1090l-229 234h105l176 -143l186 143h104l-238 -234h-104z" />
    <glyph glyph-name="Tcommaaccent" unicode="&#x162;" horiz-adv-x="1000" 
d="M464 0h-9v1510h-405v90h900v-90h-405v-1510h-17l-3 -29l-1 -6h1l-3 -40q14 -7 28 -15q60 -39 68 -94q1 -7 1 -14q0 -45 -43 -78q-51 -39 -130 -39q-34 0 -64 7l11 55q21 -7 46 -7q45 0 74 23q25 19 25 46v7q-5 32 -40 55q-35 21 -77 22z" />
    <glyph glyph-name="tcommaaccent" unicode="&#x163;" horiz-adv-x="670" 
d="M299 0h-9v892h-200v90h200v418h90v-418h200v-90h-200v-892h-17l-3 -29l-1 -6h1l-3 -40q14 -7 28 -15q60 -39 68 -94q1 -7 1 -14q0 -45 -43 -78q-51 -39 -130 -39q-34 0 -64 7l11 55q21 -7 46 -7q45 0 74 23q25 19 25 46v7q-5 32 -40 55q-35 21 -77 22z" />
    <glyph glyph-name="Tcaron" unicode="&#x164;" horiz-adv-x="1000" 
d="M545 1510v-1510h-90v1510h-405v90h900v-90h-405zM444 1708l-229 234h105l176 -143l186 143h104l-238 -234h-104z" />
    <glyph glyph-name="tcaron" unicode="&#x165;" horiz-adv-x="638" 
d="M236 982v417h90v-417h200v-91h-200v-891h-90v891h-200v91h200zM525 1402q-23 4 -40 22q-27 26 -27 65q0 37 26.5 62.5t64.5 25.5q36 0 62.5 -25.5t26.5 -62.5q0 -22 -7 -40l-98 -198h-65z" />
    <glyph glyph-name="Tbar" unicode="&#x166;" horiz-adv-x="1000" 
d="M455 845v665h-405v90h900v-90h-405v-665h255v-90h-255v-755h-90v755h-255v90h255z" />
    <glyph glyph-name="tbar" unicode="&#x167;" horiz-adv-x="670" 
d="M90 605h200v287h-200v90h200v418h90v-418h200v-90h-200v-287h200v-90h-200v-515h-90v515h-200v90z" />
    <glyph glyph-name="Utilde" unicode="&#x168;" horiz-adv-x="1345" 
d="M1104 1600h91v-1150q-25 -183 -153 -311q-153 -153 -369 -153q-217 0 -370 153t-153 369v1092h91v-1092q0 -178 126.5 -304.5t305.5 -126.5t305 126.5t126 304.5v1092zM667 1873q75 -60 124 -60h5q50 3 70 84h69q-21 -129 -99 -152q-21 -6 -42 -6q-57 0 -115 46
q-75 59 -124 59h-5q-50 -3 -70 -84h-70q22 129 100 152q21 6 42 6q57 0 115 -45z" />
    <glyph glyph-name="utilde" unicode="&#x169;" horiz-adv-x="1099" 
d="M555 -14q-184 0 -293 109t-112 275v612h90v-604q0 -125 91 -213q90 -89 223 -89q124 0 214.5 88.5t90.5 213.5v604h90v-612q-3 -166 -112 -275t-282 -109zM544 1255q75 -60 124 -60h5q50 3 70 84h69q-21 -129 -99 -152q-21 -6 -42 -6q-57 0 -115 46q-75 59 -124 59h-5
q-50 -3 -70 -84h-70q22 129 100 152q21 6 42 6q57 0 115 -45z" />
    <glyph glyph-name="Umacron" unicode="&#x16a;" horiz-adv-x="1345" 
d="M1104 1600h91v-1150q-25 -183 -153 -311q-153 -153 -369 -153q-217 0 -370 153t-153 369v1092h91v-1092q0 -178 126.5 -304.5t305.5 -126.5t305 126.5t126 304.5v1092zM378 1845h590v-70h-590v70z" />
    <glyph glyph-name="umacron" unicode="&#x16b;" horiz-adv-x="1099" 
d="M555 -14q-184 0 -293 109t-112 275v612h90v-604q0 -125 91 -213q90 -89 223 -89q124 0 214.5 88.5t90.5 213.5v604h90v-612q-3 -166 -112 -275t-282 -109zM255 1227h590v-70h-590v70z" />
    <glyph glyph-name="Ubreve" unicode="&#x16c;" horiz-adv-x="1345" 
d="M1104 1600h91v-1150q-25 -183 -153 -311q-153 -153 -369 -153q-217 0 -370 153t-153 369v1092h91v-1092q0 -178 126.5 -304.5t305.5 -126.5t305 126.5t126 304.5v1092zM512 1956q8 -53 46 -91q48 -48 116 -48q67 0 115 48q39 38 46 91h73q-8 -83 -68 -143
q-68 -69 -166 -69q-99 0 -167 69q-65 66 -69 143h74z" />
    <glyph glyph-name="ubreve" unicode="&#x16d;" horiz-adv-x="1099" 
d="M555 -14q-184 0 -293 109t-112 275v612h90v-604q0 -125 91 -213q90 -89 223 -89q124 0 214.5 88.5t90.5 213.5v604h90v-612q-3 -166 -112 -275t-282 -109zM389 1338q8 -53 46 -91q48 -48 116 -48q67 0 115 48q39 38 46 91h73q-8 -83 -68 -143q-68 -69 -166 -69
q-99 0 -167 69q-65 66 -69 143h74z" />
    <glyph glyph-name="Uring" unicode="&#x16e;" horiz-adv-x="1345" 
d="M1104 1600h91v-1150q-25 -183 -153 -311q-153 -153 -369 -153q-217 0 -370 153t-153 369v1092h91v-1092q0 -178 126.5 -304.5t305.5 -126.5t305 126.5t126 304.5v1092zM760 1944q36 -36 36 -87q0 -50 -36 -86t-87 -36t-87 36t-36 86q0 51 36 87t87 36t87 -36zM673 1915
q-24 0 -41 -17t-17 -41q0 -23 17 -40t41 -17q23 0 40 17t17 40q0 24 -17 41t-40 17z" />
    <glyph glyph-name="uring" unicode="&#x16f;" horiz-adv-x="1099" 
d="M555 -14q-184 0 -293 109t-112 275v612h90v-604q0 -125 91 -213q90 -89 223 -89q124 0 214.5 88.5t90.5 213.5v604h90v-612q-3 -166 -112 -275t-282 -109zM637 1326q36 -36 36 -87q0 -50 -36 -86t-87 -36t-87 36t-36 86q0 51 36 87t87 36t87 -36zM550 1297q-24 0 -41 -17
t-17 -41q0 -23 17 -40t41 -17q23 0 40 17t17 40q0 24 -17 41t-40 17z" />
    <glyph glyph-name="Uhungarumlaut" unicode="&#x170;" horiz-adv-x="1345" 
d="M1104 1600h91v-1150q-25 -183 -153 -311q-153 -153 -369 -153q-217 0 -370 153t-153 369v1092h91v-1092q0 -178 126.5 -304.5t305.5 -126.5t305 126.5t126 304.5v1092zM723 1966l-245 -187h-84l163 187h166zM952 1966l-245 -187h-84l163 187h166z" />
    <glyph glyph-name="uhungarumlaut" unicode="&#x171;" horiz-adv-x="1099" 
d="M555 -14q-184 0 -293 109t-112 275v612h90v-604q0 -125 91 -213q90 -89 223 -89q124 0 214.5 88.5t90.5 213.5v604h90v-612q-3 -166 -112 -275t-282 -109zM600 1348l-245 -187h-84l163 187h166zM829 1348l-245 -187h-84l163 187h166z" />
    <glyph glyph-name="Uogonek" unicode="&#x172;" horiz-adv-x="1345" 
d="M854 17q-84 -31 -181 -31q-217 0 -370 153t-153 369v1092h91v-1092q0 -178 126.5 -304.5t305.5 -126.5t305 126.5t126 304.5v1092h91v-1150q-25 -183 -153 -311q-41 -41 -86 -70q-89 -107 -99 -172q-2 -18 -2 -34q0 -48 22 -74q30 -36 80 -36q30 0 58 14l22 -50
q-56 -23 -111 -23q-73 0 -117 49q-35 39 -35 96q0 14 2 29q9 65 78 149z" />
    <glyph glyph-name="uogonek" unicode="&#x173;" horiz-adv-x="1099" 
d="M733 22q-79 -36 -178 -36q-184 0 -293 109t-112 275v612h90v-604q0 -125 91 -213q90 -89 223 -89q124 0 214.5 88.5t90.5 213.5v604h90v-612q-3 -166 -112 -275q-7 -7 -14 -13q-64 -120 -74 -184q-2 -18 -2 -34q0 -48 22 -74q30 -36 80 -36q30 0 58 14l22 -50
q-56 -23 -111 -23q-73 0 -117 49q-35 39 -35 96q0 14 2 29q9 63 65 153z" />
    <glyph glyph-name="Wcircumflex" unicode="&#x174;" horiz-adv-x="1672" 
d="M791 240v1360h90v-1360q23 -43 57 -77q90 -87 214 -87t214.5 88.5t90.5 213.5v1222h90v-1230q-3 -156 -115 -268q-116 -116 -280 -116q-163 0 -279 115q-21 20 -37 41q-16 -21 -37 -41q-116 -115 -279 -115q-164 0 -279 116q-113 112 -116 268v1230h90v-1222
q0 -125 90.5 -213.5t214.5 -88.5t214 87q34 34 57 77zM884 1942l238 -234h-104l-186 143l-176 -143h-105l229 234h104z" />
    <glyph glyph-name="wcircumflex" unicode="&#x175;" horiz-adv-x="1375" 
d="M642 260v722h90v-700q0 -88 59.5 -147t142.5 -59t143 59q55 55 59 133h-1v714h90v-714q-4 -115 -85 -196q-85 -86 -206 -86t-206 86q-23 23 -40 48q-17 -25 -41 -48q-85 -86 -206 -86t-206 86q-81 81 -85 196v714h90v-714h-1q4 -78 60 -133q59 -59 142 -59t143 59
q51 51 58 125zM735 1324l238 -234h-104l-186 143l-176 -143h-105l229 234h104z" />
    <glyph glyph-name="Ycircumflex" unicode="&#x176;" horiz-adv-x="1291" 
d="M600 647l-550 953h103l492 -853l493 853h103l-551 -953v-647h-90v647zM693 1942l238 -234h-104l-186 143l-176 -143h-105l229 234h104z" />
    <glyph glyph-name="ycircumflex" unicode="&#x177;" horiz-adv-x="1005" 
d="M503 88l-222 -463h-88l265 556l-383 801h102l326 -704l326 704h101l-427 -895v1zM550 1324l238 -234h-104l-186 143l-176 -143h-105l229 234h104z" />
    <glyph glyph-name="Ydieresis" unicode="&#x178;" horiz-adv-x="1291" 
d="M600 647l-550 953h103l492 -853l493 853h103l-551 -953v-647h-90v647zM559.5 1922q26.5 -26 26.5 -63q0 -38 -26.5 -64t-63.5 -26t-63.5 26t-26.5 64q0 37 26.5 63t63.5 26t63.5 -26zM859.5 1922q26.5 -26 26.5 -63q0 -38 -26.5 -64t-63.5 -26t-63.5 26t-26.5 64
q0 37 26.5 63t63.5 26t63.5 -26z" />
    <glyph glyph-name="Zacute" unicode="&#x179;" horiz-adv-x="1327" 
d="M1022 1510h-872v90h1027l-873 -1510h873v-90h-1027zM883 2005l-245 -187h-84l163 187h166z" />
    <glyph glyph-name="zacute" unicode="&#x17a;" horiz-adv-x="1000" 
d="M657 892h-507v90h662l-508 -892h546v-90h-700zM719 1387l-245 -187h-84l163 187h166z" />
    <glyph glyph-name="Zdotaccent" unicode="&#x17b;" horiz-adv-x="1327" 
d="M1022 1510h-872v90h1027l-873 -1510h873v-90h-1027zM717.5 1899q22.5 -22 22.5 -54t-22.5 -54t-53.5 -22q-32 0 -54.5 22t-22.5 54t22.5 54t54.5 22q31 0 53.5 -22z" />
    <glyph glyph-name="zdotaccent" unicode="&#x17c;" horiz-adv-x="1000" 
d="M657 892h-507v90h662l-508 -892h546v-90h-700zM554.5 1281q22.5 -22 22.5 -54t-22.5 -54t-53.5 -22q-32 0 -54.5 22t-22.5 54t22.5 54t54.5 22q31 0 53.5 -22z" />
    <glyph glyph-name="Zcaron" unicode="&#x17d;" horiz-adv-x="1327" 
d="M1022 1510h-872v90h1027l-873 -1510h873v-90h-1027zM607 1708l-229 234h105l176 -143l186 143h104l-238 -234h-104z" />
    <glyph glyph-name="zcaron" unicode="&#x17e;" horiz-adv-x="1000" 
d="M657 892h-507v90h662l-508 -892h546v-90h-700zM444 1090l-229 234h105l176 -143l186 143h104l-238 -234h-104z" />
    <glyph glyph-name="longs" unicode="&#x17f;" horiz-adv-x="433" 
d="M215 0h-91v1248q7 111 85 191q82 76 189 76q56 0 119 -22l-29 -80q-42 18 -81 18q-70 0 -134 -56q-55 -56 -58 -134v-1241z" />
    <glyph glyph-name="florin" unicode="&#x192;" horiz-adv-x="447" 
d="M229 0h-1v-79q-12 -284 -290 -284v83q189 0 200 198v973h-99v91h99v266q7 111 85 191q83 76 189 76q57 0 119 -22l-28 -80q-42 18 -82 18q-70 0 -133 -56q-56 -56 -59 -134v-259h200v-91h-200v-891z" />
    <glyph glyph-name="Aringacute" unicode="&#x1fa;" horiz-adv-x="1263" 
d="M887 714l-254 671l-256 -671h510zM630 1690q-25 0 -41.5 -17t-16.5 -42q0 -22 16.5 -39t41.5 -17q23 0 40 17t17 39q0 25 -17 42t-40 17zM603 1753l108 151h166l-196 -161q20 -9 37 -24q35 -37 35 -88q0 -49 -35 -84q-19 -19 -39 -26l580 -1521h-95l-244 624h-576
l-249 -624h-96l586 1518q-23 9 -42 29q-36 35 -36 84q0 51 36 88q26 26 60 34z" />
    <glyph glyph-name="aringacute" unicode="&#x1fb;" horiz-adv-x="1270" 
d="M1079 432v110q-25 132 -125 232q-133 133 -321 133t-321 -122t-133 -299q0 -176 133 -297t321 -121t321 133q100 100 125 231zM627 1174q-25 0 -42 -17t-17 -42q0 -22 17 -39t42 -17q23 0 40 17t17 39q0 25 -17 42t-40 17zM676 1229q20 -9 38 -26q35 -37 35 -88
q0 -49 -35 -84q-20 -21 -45 -30q205 -11 353 -159q31 -32 57 -67v139h90v-914h-90v200q-26 -35 -57 -67q-161 -161 -389 -161q-227 0 -388 149.5t-161 364.5q0 218 153 358.5t351 156.5q-27 8 -48 30q-36 35 -36 84q0 51 36 88q24 23 55 31l153 171h167z" />
    <glyph glyph-name="AEacute" unicode="&#x1fc;" horiz-adv-x="1676" 
d="M1551 1600v-90h-710v-665h710v-90h-710v-665h710v-90h-800v613h-322l-263 -613h-126l711 1597v3h800zM751 1373l-289 -670h289v670zM1015 2005l-245 -187h-84l163 187h166z" />
    <glyph glyph-name="aeacute" unicode="&#x1fd;" horiz-adv-x="2171" 
d="M1038 739q-30 55 -78 103q-133 133 -321 133t-321 -133t-133 -321t133 -320.5t321 -132.5t321 133q48 48 78 102q34 60 47 129v178q-13 69 -47 129zM1973 663q-32 103 -108 179q-133 133 -321 133t-321 -133q-27 -27 -48 -55v-124h798zM1175 256q21 -29 48 -55
q133 -133 321 -133t321 133q23 23 43 48l96 -34q-17 -28 -71 -82q-161 -161 -389 -161q-214 0 -369 143v-115h-90v200q-26 -35 -57 -67q-161 -161 -389 -161q-227 0 -388 161t-161 388q0 228 161 389t388 161q228 0 389 -161q31 -32 57 -67v139h90v-54q155 143 369 143
q228 0 389 -161q142 -143 148 -338l-906 1v-317zM1305 1387l-245 -187h-84l163 187h166z" />
    <glyph glyph-name="Oslashacute" unicode="&#x1fe;" horiz-adv-x="1892" 
d="M1213 1483q-123 48 -267 48q-302 0 -515.5 -213.5t-213.5 -515.5t214 -516q77 -77 166 -127zM678 121q124 -49 268 -49q302 0 515.5 214t213.5 516t-213 516q-78 77 -167 126zM1334 1528q103 -56 193 -145q240 -241 240 -581t-240.5 -580.5t-580.5 -240.5q-165 0 -306 57
l-86 -184l-82 38l86 184q-103 56 -192 146q-241 240 -241 580t240.5 580.5t580.5 240.5q165 0 306 -57l86 184l82 -38zM1165 2005l-245 -187h-84l163 187h166z" />
    <glyph glyph-name="oslashacute" unicode="&#x1ff;" horiz-adv-x="1278" 
d="M827 937q-86 39 -188 39q-188 0 -321 -133t-133 -321t133 -320q27 -28 57 -49zM904 891l-453 -783q86 -39 188 -39q188 0 321 132.5t133 320.5t-133 321q-27 27 -56 48zM327 70q-40 28 -76 64q-161 161 -161 388q0 228 161 389t388 161q129 0 237 -52l122 212l79 -41
l-125 -216q40 -28 76 -64q160 -161 160 -389q0 -227 -160.5 -388t-388.5 -161q-129 0 -236 52l-123 -213l-79 38zM858 1387l-245 -187h-84l163 187h166z" />
    <glyph glyph-name="circumflex" unicode="&#x2c6;" horiz-adv-x="811" 
d="M454 1324l238 -234h-104l-186 143l-176 -143h-105l229 234h104z" />
    <glyph glyph-name="caron" unicode="&#x2c7;" horiz-adv-x="811" 
d="M350 1090l-229 234h105l176 -143l186 143h104l-238 -234h-104z" />
    <glyph glyph-name="uni02C9" unicode="&#x2c9;" horiz-adv-x="890" 
d="M150 1227h590v-70h-590v70z" />
    <glyph glyph-name="breve" unicode="&#x2d8;" horiz-adv-x="880" 
d="M279 1338q8 -53 46 -91q48 -48 116 -48q67 0 115 48q39 38 46 91h73q-8 -83 -68 -143q-68 -69 -166 -69q-99 0 -167 69q-65 66 -69 143h74z" />
    <glyph glyph-name="dotaccent" unicode="&#x2d9;" horiz-adv-x="403" 
d="M255.5 1281q22.5 -22 22.5 -54t-22.5 -54t-53.5 -22q-32 0 -54.5 22t-22.5 54t22.5 54t54.5 22q31 0 53.5 -22z" />
    <glyph glyph-name="ring" unicode="&#x2da;" horiz-adv-x="762" 
d="M469 1326q36 -36 36 -87q0 -50 -36 -86t-87 -36t-87 36t-36 86q0 51 36 87t87 36t87 -36zM382 1297q-24 0 -41 -17t-17 -41q0 -23 17 -40t41 -17q23 0 40 17t17 40q0 24 -17 41t-40 17z" />
    <glyph glyph-name="ogonek" unicode="&#x2db;" horiz-adv-x="283" 
d="M93 -102q-2 -18 -2 -34q0 -48 22 -74q30 -36 80 -36q30 0 58 14l22 -50q-56 -23 -111 -23q-73 0 -117 49q-35 39 -35 96q0 14 2 29q15 104 165 179l20 -30q-93 -47 -104 -120z" />
    <glyph glyph-name="tilde" unicode="&#x2dc;" horiz-adv-x="825" 
d="M407 1255q75 -60 124 -60h5q50 3 70 84h69q-21 -129 -99 -152q-21 -6 -42 -6q-57 0 -115 46q-75 59 -124 59h-5q-50 -3 -70 -84h-70q22 129 100 152q21 6 42 6q57 0 115 -45z" />
    <glyph glyph-name="hungarumlaut" unicode="&#x2dd;" horiz-adv-x="858" 
d="M479 1348l-245 -187h-84l163 187h166zM708 1348l-245 -187h-84l163 187h166z" />
    <glyph glyph-name="tonos" unicode="&#x384;" horiz-adv-x="437" 
d="M414 1600l-245 -187h-84l163 187h166z" />
    <glyph glyph-name="dieresistonos" unicode="&#x385;" horiz-adv-x="804" 
d="M578 1600l-201 -187h-83l117 187h167zM661 1518q19 -18 19 -43q0 -27 -19 -45t-44 -18q-26 0 -44.5 18t-18.5 45q0 25 18.5 43t44.5 18q25 0 44 -18zM231 1518q19 -18 19 -43q0 -27 -19 -45t-44 -18q-26 0 -44.5 18t-18.5 45q0 25 18.5 43t44.5 18q25 0 44 -18z" />
    <glyph glyph-name="Alphatonos" unicode="&#x386;" horiz-adv-x="1291" 
d="M499 1600l-245 -187h-84l163 187h166zM975 703l-244 671l-244 -671h488zM1008 613h-554l-223 -613h-96l596 1637l595 -1637h-95z" />
    <glyph glyph-name="anoteleia" unicode="&#x387;" horiz-adv-x="277" 
d="M192 1111.5q23 -22.5 23 -53.5q0 -32 -23 -54t-53 -22q-32 0 -54.5 22t-22.5 54q0 31 22.5 53.5t54.5 22.5q30 0 53 -22.5z" />
    <glyph glyph-name="Epsilontonos" unicode="&#x388;" horiz-adv-x="1339" 
d="M414 1600l-245 -187h-84l163 187h166zM1529 1600v-90h-710v-665h710v-90h-710v-665h710v-90h-800v1600h800z" />
    <glyph glyph-name="Etatonos" unicode="&#x389;" horiz-adv-x="1414" 
d="M414 1600l-245 -187h-84l163 187h166zM819 717v-717h-90v1600h90v-793h670v793h90v-1600h-90v717h-670z" />
    <glyph glyph-name="Iotatonos" unicode="&#x38a;" horiz-adv-x="807" 
d="M414 1600l-245 -187h-84l163 187h166zM670 1600v-1600h-91v1600h91z" />
    <glyph glyph-name="Omicrontonos" unicode="&#x38c;" horiz-adv-x="2181" 
d="M414 1600l-245 -187h-84l163 187h166zM1776.5 1382.5q240.5 -240.5 240.5 -580.5t-240.5 -580.5t-580.5 -240.5t-580.5 240.5t-240.5 580.5t240.5 580.5t580.5 240.5t580.5 -240.5zM1196 1531q-302 0 -515.5 -213.5t-213.5 -515.5t213.5 -516t515.5 -214t515.5 214
t213.5 516t-213.5 515.5t-515.5 213.5z" />
    <glyph glyph-name="Upsilontonos" unicode="&#x38e;" horiz-adv-x="1655" 
d="M414 1600l-245 -187h-84l163 187h166zM1179 647l-550 953h103l492 -853l493 853h103l-551 -953v-647h-90v647z" />
    <glyph glyph-name="Omegatonos" unicode="&#x38f;" horiz-adv-x="1917" 
d="M414 1600l-245 -187h-84l163 187h166zM1054 1600q316 0 507.5 -223t191.5 -602q0 -278 -152.5 -467t-274.5 -219h325v-89h-535v89q216 50 381.5 225t165.5 461q0 342 -167 545.5t-447 203.5h-5q-280 0 -447 -203.5t-167 -545.5q0 -286 165.5 -461t381.5 -225v-89h-535v89
h325q-122 30 -274.5 219t-152.5 467q0 379 191.5 602t507.5 223h15z" />
    <glyph glyph-name="iotadieresistonos" unicode="&#x390;" horiz-adv-x="418" 
d="M253 982v-982h-89v982h89zM385 1377l-201 -187h-83l117 187h167zM468 1295q19 -18 19 -43q0 -27 -19 -45t-44 -18q-26 0 -44.5 18t-18.5 45q0 25 18.5 43t44.5 18q25 0 44 -18zM38 1295q19 -18 19 -43q0 -27 -19 -45t-44 -18q-26 0 -44.5 18t-18.5 45q0 25 18.5 43
t44.5 18q25 0 44 -18z" />
    <glyph glyph-name="Alpha" unicode="&#x391;" horiz-adv-x="1291" 
d="M890 703l-244 671l-244 -671h488zM923 613h-554l-223 -613h-96l596 1637l595 -1637h-95z" />
    <glyph glyph-name="Beta" unicode="&#x392;" horiz-adv-x="1066" 
d="M434 1600q123 0 210.5 -87t87.5 -210q0 -124 -127 -231q112 -23 211 -132q160 -161 160 -389q0 -227 -160 -393q-149 -154 -356 -157v-1h-310v1600h284zM240 1005v-915h220v-1q167 11 288 137q133 137 133 325t-133 321t-321 133h-187zM240 1510v-409h217q75 7 128 56
q61 56 61 146t-61 148.5t-151 58.5h-194z" />
    <glyph glyph-name="Gamma" unicode="&#x393;" horiz-adv-x="852" 
d="M827 1600v-91h-609v-1509h-91v1600h700z" />
    <glyph glyph-name="uni0394" unicode="&#x394;" horiz-adv-x="1248" 
d="M34 1h-68l583 1599h109l590 -1600h-1214v1zM1119 90l-516 1397l-509 -1397h1025z" />
    <glyph glyph-name="Epsilon" unicode="&#x395;" horiz-adv-x="1075" 
d="M950 1600v-90h-710v-665h710v-90h-710v-665h710v-90h-800v1600h800z" />
    <glyph glyph-name="Zeta" unicode="&#x396;" horiz-adv-x="1327" 
d="M1022 1510h-872v90h1027l-873 -1510h873v-90h-1027z" />
    <glyph glyph-name="Eta" unicode="&#x397;" horiz-adv-x="1150" 
d="M240 717v-717h-90v1600h90v-793h670v793h90v-1600h-90v717h-670z" />
    <glyph glyph-name="Theta" unicode="&#x398;" horiz-adv-x="1782" 
d="M1471.5 1382q240.5 -240 240.5 -580q0 -341 -240.5 -581t-581.5 -240q-339 0 -579.5 240t-240.5 581q0 340 240.5 580t579.5 240q341 0 581.5 -240zM890 1531q-301 0 -514.5 -214t-213.5 -515q0 -302 213.5 -516t514.5 -214q302 0 516 214t214 516q0 301 -214 515
t-516 214zM439 847h905v-90h-905v90z" />
    <glyph glyph-name="Iota" unicode="&#x399;" horiz-adv-x="367" 
d="M229 1600v-1600h-91v1600h91z" />
    <glyph glyph-name="Kappa" unicode="&#x39a;" horiz-adv-x="1097" 
d="M240 775v-775h-90v1600h90v-681l511 681h116l-480 -644l620 -956h-111l-568 884z" />
    <glyph glyph-name="Lambda" unicode="&#x39b;" horiz-adv-x="1282" 
d="M692 1600l590 -1600h-95l-550 1487l-542 -1486h-95l583 1599h109z" />
    <glyph glyph-name="Mu" unicode="&#x39c;" horiz-adv-x="1707" 
d="M253 1600l601 -1040l600 1040h103l-4 -7v-1593h-90v1437l-609 -1054l-610 1054v-1437h-90v1593l-4 7h103z" />
    <glyph glyph-name="Nu" unicode="&#x39d;" horiz-adv-x="1311" 
d="M150 1600h99l822 -1423v1423h90v-1600h-90l-831 1437v-1437h-90v1600z" />
    <glyph glyph-name="Xi" unicode="&#x39e;" horiz-adv-x="1245" 
d="M169 847h905v-90h-905v90zM57 1601h1132v-91h-1132v91zM57 91h1132v-90h-1132v90z" />
    <glyph glyph-name="Omicron" unicode="&#x39f;" horiz-adv-x="1892" 
d="M1526.5 1382.5q240.5 -240.5 240.5 -580.5t-240.5 -580.5t-580.5 -240.5t-580.5 240.5t-240.5 580.5t240.5 580.5t580.5 240.5t580.5 -240.5zM946 1531q-302 0 -515.5 -213.5t-213.5 -515.5t213.5 -516t515.5 -214t515.5 214t213.5 516t-213.5 515.5t-515.5 213.5z" />
    <glyph glyph-name="Pi" unicode="&#x3a0;" horiz-adv-x="1213" 
d="M197 1509v-1509h-91v1600h1000v-1600h-90v1509h-819z" />
    <glyph glyph-name="Rho" unicode="&#x3a1;" horiz-adv-x="1089" 
d="M240 555v-555h-90v1600h420q183 -25 311 -153q153 -153 153 -369q0 -217 -153 -370t-369 -153h-272zM240 1509v-863h272q178 0 304.5 126.5t126.5 305.5t-126.5 305t-304.5 126h-272z" />
    <glyph glyph-name="Sigma" unicode="&#x3a3;" horiz-adv-x="1201" 
d="M27 1599h1147v-91h-1050l585 -709l-585 -709h1050v-90h-1147v131l566 668l-566 668v132z" />
    <glyph glyph-name="Tau" unicode="&#x3a4;" horiz-adv-x="1000" 
d="M545 1510v-1510h-90v1510h-405v90h900v-90h-405z" />
    <glyph glyph-name="Upsilon" unicode="&#x3a5;" horiz-adv-x="1291" 
d="M600 647l-550 953h103l492 -853l493 853h103l-551 -953v-647h-90v647z" />
    <glyph glyph-name="Phi" unicode="&#x3a6;" horiz-adv-x="1786" 
d="M847 334v905q-306 -8 -483 -131q-189 -134 -189 -322t189 -320q177 -124 483 -132zM938 239v-235h-91v235q-346 9 -550 160q-218 161 -218 388q0 228 218 388q204 150 550 159v264h91v-264q347 -9 552 -159q217 -160 217 -388q0 -227 -217 -388q-205 -151 -552 -160z
M938 1239v-905q308 8 484 132q189 132 189 320t-189 322q-176 123 -484 131z" />
    <glyph glyph-name="Chi" unicode="&#x3a7;" horiz-adv-x="1218" 
d="M50 0l507 879l-416 721h103l364 -632l366 632h103l-418 -721l509 -879h-103l-457 790l-456 -790h-102z" />
    <glyph glyph-name="Psi" unicode="&#x3a8;" horiz-adv-x="1826" 
d="M955 352v-348h-90v348q-347 9 -550 160q-207 161 -213 392v694h91v-699q0 -187 188 -320q177 -124 484 -132v1151h90v-1151q308 8 484 132q189 133 189 325h6v694h91v-700q-2 -226 -218 -386q-204 -151 -552 -160z" />
    <glyph glyph-name="uni03A9" unicode="&#x3a9;" horiz-adv-x="1593" 
d="M804 1600q316 0 507.5 -223t191.5 -602q0 -278 -152.5 -467t-274.5 -219h325v-89h-535v89q216 50 381.5 225t165.5 461q0 342 -167 545.5t-447 203.5h-5q-280 0 -447 -203.5t-167 -545.5q0 -286 165.5 -461t381.5 -225v-89h-535v89h325q-122 30 -274.5 219t-152.5 467
q0 379 191.5 602t507.5 223h15z" />
    <glyph glyph-name="Iotadieresis" unicode="&#x3aa;" horiz-adv-x="367" 
d="M229 1600v-1600h-91v1600h91zM96.5 1922q26.5 -26 26.5 -63q0 -38 -26.5 -64t-63.5 -26t-63.5 26t-26.5 64q0 37 26.5 63t63.5 26t63.5 -26zM396.5 1922q26.5 -26 26.5 -63q0 -38 -26.5 -64t-63.5 -26t-63.5 26t-26.5 64q0 37 26.5 63t63.5 26t63.5 -26z" />
    <glyph glyph-name="Upsilondieresis" unicode="&#x3ab;" horiz-adv-x="1291" 
d="M600 647l-550 953h103l492 -853l493 853h103l-551 -953v-647h-90v647zM559.5 1922q26.5 -26 26.5 -63q0 -38 -26.5 -64t-63.5 -26t-63.5 26t-26.5 64q0 37 26.5 63t63.5 26t63.5 -26zM859.5 1922q26.5 -26 26.5 -63q0 -38 -26.5 -64t-63.5 -26t-63.5 26t-26.5 64
q0 37 26.5 63t63.5 26t63.5 -26z" />
    <glyph glyph-name="alphatonos" unicode="&#x3ac;" horiz-adv-x="1315" 
d="M1109 234q-34 -53 -80 -101q-161 -161 -389 -161q-227 0 -388 161t-161 387q0 229 161 389.5t388 160.5q228 0 389 -160q50 -51 80 -154l72 226h89l-113 -491l113 -491h-89zM961 842q-133 133 -321 133t-321 -133.5t-133 -321.5t133 -320t321 -132t321 132
q102 102 105 295q0 238 -105 347zM900 1600l-245 -187h-84l163 187h166z" />
    <glyph glyph-name="epsilontonos" unicode="&#x3ad;" horiz-adv-x="853" 
d="M251 401q-65 -47 -65 -144q0 -75 73.5 -128.5t193.5 -53.5q175 11 298 186l-1 -147q-133 -135 -297 -135q-148 0 -249.5 76.5t-101.5 213.5q0 135 160 232q-160 97 -160 243q0 137 101.5 195.5t249.5 58.5q160 0 297 -127v-122q-121 154 -297 154q-120 0 -193.5 -37
t-73.5 -111q0 -109 65 -155.5t102 -55.5h247v-89h-247q-37 -7 -102 -54zM646 1600l-245 -187h-84l163 187h166z" />
    <glyph glyph-name="etatonos" unicode="&#x3ae;" horiz-adv-x="952" 
d="M193 762v-762h-91v982h91v-63q122 122 285 122q174 0 283 -109.5t112 -274.5v-1032h-90v1023q0 126 -90.5 214t-214.5 88t-214 -87q-49 -48 -71 -101zM707 1600l-245 -187h-84l163 187h166z" />
    <glyph glyph-name="iotatonos" unicode="&#x3af;" horiz-adv-x="417" 
d="M253 982v-982h-89v982h89zM428 1600l-245 -187h-84l163 187h166z" />
    <glyph glyph-name="upsilondieresistonos" unicode="&#x3b0;" horiz-adv-x="1099" 
d="M555 -14q-184 0 -293 109t-112 275v612h90v-604q0 -125 91 -213q90 -89 223 -89q124 0 214.5 88.5t90.5 213.5v604h90v-612q-3 -166 -112 -275t-282 -109zM726 1600l-201 -187h-83l117 187h167zM809 1518q19 -18 19 -43q0 -27 -19 -45t-44 -18q-26 0 -44.5 18t-18.5 45
q0 25 18.5 43t44.5 18q25 0 44 -18zM379 1518q19 -18 19 -43q0 -27 -19 -45t-44 -18q-26 0 -44.5 18t-18.5 45q0 25 18.5 43t44.5 18q25 0 44 -18z" />
    <glyph glyph-name="alpha" unicode="&#x3b1;" horiz-adv-x="1315" 
d="M1109 234q-34 -53 -80 -101q-161 -161 -389 -161q-227 0 -388 161t-161 387q0 229 161 389.5t388 160.5q228 0 389 -160q50 -51 80 -154l72 226h89l-113 -491l113 -491h-89zM961 842q-133 133 -321 133t-321 -133.5t-133 -321.5t133 -320t321 -132t321 132
q102 102 105 295q0 238 -105 347z" />
    <glyph glyph-name="beta" unicode="&#x3b2;" horiz-adv-x="1031" 
d="M463 1621q143 0 242.5 -100t99.5 -239q0 -143 -76 -224.5t-143 -108.5q145 -47 240 -149q137 -147 137 -344q0 -198 -139.5 -338t-337.5 -140q-101 0 -187 37l29 91q73 -33 158 -33q159 0 271 111.5t112 271.5q0 158 -109 277t-328 160l-74 2v89q93 1 152 24.5t129 97.5
t70 176q0 103 -72 174t-174 71q-101 0 -168.5 -75t-67.5 -203v-1620h-91v1631q0 162 93 261.5t234 99.5z" />
    <glyph glyph-name="gamma" unicode="&#x3b3;" horiz-adv-x="1011" 
d="M457 0l-412 982h105l353 -841l358 841h105l-414 -977v-380h-95v375z" />
    <glyph glyph-name="delta" unicode="&#x3b4;" horiz-adv-x="1260" 
d="M176 520q0 -188 133 -320t321 -132t321 132t133 320t-133 321.5t-321 133.5t-321 -133.5t-133 -321.5zM1042.5 886q136.5 -137 136.5 -366q0 -226 -160.5 -387t-388.5 -161q-227 0 -388 161t-161 387q0 229 162 390q141 141 401 169l-426 515h712v-90h-499
q283 -387 379 -434t232.5 -184z" />
    <glyph glyph-name="epsilon" unicode="&#x3b5;" horiz-adv-x="853" 
d="M251 401q-65 -47 -65 -144q0 -75 73.5 -128.5t193.5 -53.5q175 11 298 186l-1 -147q-133 -135 -297 -135q-148 0 -249.5 76.5t-101.5 213.5q0 135 160 232q-160 97 -160 243q0 137 101.5 195.5t249.5 58.5q160 0 297 -127v-122q-121 154 -297 154q-120 0 -193.5 -37
t-73.5 -111q0 -109 65 -155.5t102 -55.5h247v-89h-247q-37 -7 -102 -54z" />
    <glyph glyph-name="zeta" unicode="&#x3b6;" horiz-adv-x="894" 
d="M916 1570q-615 -617 -701 -1051q-14 -69 -14 -127q0 -310 386 -322q280 -9 280 -216q-34 -181 -204 -187v94q106 0 113 105v6q0 106 -182 106q-481 11 -481 399q0 46 8 98q63 484 640 1034h-606v91h761v-30z" />
    <glyph glyph-name="eta" unicode="&#x3b7;" horiz-adv-x="952" 
d="M193 762v-762h-91v982h91v-63q122 122 285 122q174 0 283 -109.5t112 -274.5v-1032h-90v1023q0 126 -90.5 214t-214.5 88t-214 -87q-49 -48 -71 -101z" />
    <glyph glyph-name="theta" unicode="&#x3b8;" horiz-adv-x="1279" 
d="M1094 786q0 340 -133 529t-321 189t-321 -189t-133 -529t133 -529t321 -189t321 189t133 529zM1189 786q0 -379 -160.5 -596.5t-387.5 -217.5q-228 0 -389 217.5t-161 596.5q0 378 161 596t389 218q227 0 387.5 -218t160.5 -596zM333 831h615v-90h-615v90z" />
    <glyph glyph-name="iota" unicode="&#x3b9;" horiz-adv-x="417" 
d="M253 982v-982h-89v982h89z" />
    <glyph glyph-name="kappa" unicode="&#x3ba;" horiz-adv-x="835" 
d="M705 982l-242 -300l385 -682h-110l-334 610l-200 -222v-388h-91v982h91v-450l385 450h116z" />
    <glyph glyph-name="lambda" unicode="&#x3bb;" horiz-adv-x="961" 
d="M532 798l372 -798h-100l-324 686l-322 -686h-101l373 800l-281 601h100l282 -603h1z" />
    <glyph glyph-name="uni03BC" unicode="&#x3bc;" horiz-adv-x="994" 
d="M781 111q-4 -5 -10 -12q-110 -108 -283 -108q-160 0 -273 110v-476h-91v1357h91v-731q19 -43 59 -84q90 -86 214 -86t215 89q58 57 78 130v682h89v-982h-89v111z" />
    <glyph glyph-name="nu" unicode="&#x3bd;" horiz-adv-x="944" 
d="M154 982l316 -750l319 750h105l-424 -1016l-421 1016h105z" />
    <glyph glyph-name="xi" unicode="&#x3be;" horiz-adv-x="1011" 
d="M230.5 135q-139.5 123 -139.5 321q0 197 137 344q95 102 240 149q-67 27 -143 97.5t-76 212.5q19 339 436 340l246 1v-83h-213q-361 0 -361 -250v-8q0 -102 64 -164.5t183 -109.5l319 -1v-89l-301 2q-219 -45 -328 -164t-109 -277q0 -160 112 -254.5t418.5 -129
t306.5 -252.5v-23q-34 -135 -212 -152v105q115 0 122 82v6q0 129 -281 151.5t-420.5 145.5z" />
    <glyph glyph-name="omicron" unicode="&#x3bf;" horiz-adv-x="1278" 
d="M639 1071q228 0 388.5 -161t160.5 -389q0 -227 -160.5 -388t-388.5 -161q-227 0 -388 161t-161 388q0 228 161 389t388 161zM318 842q-133 -133 -133 -321t133 -320.5t321 -132.5t321 132.5t133 320.5t-133 321t-321 133t-321 -133z" />
    <glyph glyph-name="pi" unicode="&#x3c0;" horiz-adv-x="1262" 
d="M449 891v-891h-89v891h-292v91h1126v-91h-292v-891h-89v891h-364z" />
    <glyph glyph-name="rho" unicode="&#x3c1;" horiz-adv-x="1256" 
d="M104 654q43 163 175.5 289t359.5 126q228 0 388.5 -160t160.5 -389q0 -226 -160.5 -387t-388.5 -161q-227 0 -388 161q-32 32 -56 66v-574h-91v1029zM195 614v-188q24 -129 123 -226q133 -133 321 -133t321 132.5t133 320.5t-133 321.5t-321 133.5t-321 -133
q-99 -99 -123 -228z" />
    <glyph glyph-name="sigma1" unicode="&#x3c2;" horiz-adv-x="1024" 
d="M275.5 141q-162.5 117 -162.5 315q0 197 137 344q149 165 479 185l216 -1v-89h-166q-308 -9 -440 -145t-132 -294q0 -160 134.5 -248.5t362 -140t227.5 -213.5v-23q-34 -158 -213 -175v105q116 0 123 105v6q0 72 -201.5 112t-364 157z" />
    <glyph glyph-name="sigma" unicode="&#x3c3;" horiz-adv-x="1355" 
d="M188 520q0 -188 133 -320t321 -132t321 132t133 320t-133 321.5t-321 133.5t-321 -133.5t-133 -321.5zM1048 891q143 -155 143 -371q0 -226 -160.5 -387t-388.5 -161q-227 0 -388 161t-161 387q0 229 161 389.5t388 160.5q170 0 301 -88h332v-91h-227z" />
    <glyph glyph-name="tau" unicode="&#x3c4;" horiz-adv-x="1040" 
d="M564 891v-891h-89v891h-405v91h900v-91h-406z" />
    <glyph glyph-name="upsilon" unicode="&#x3c5;" horiz-adv-x="1099" 
d="M555 -14q-184 0 -293 109t-112 275v612h90v-604q0 -125 91 -213q90 -89 223 -89q124 0 214.5 88.5t90.5 213.5v604h90v-612q-3 -166 -112 -275t-282 -109z" />
    <glyph glyph-name="phi" unicode="&#x3c6;" horiz-adv-x="1280" 
d="M607 -17q-206 11 -354 161q-162 160 -162 387q0 228 162 389q53 54 81 71l34 -96q-25 -21 -47 -43q-134 -134 -134 -321q0 -188 133 -321q129 -130 272 -130h8v841q17 106 121 106q73 0 188 -51q281 -126 281 -445q0 -227 -161 -387q-140 -142 -332 -160v-353h-90v352z
M691 98q191 33 270 111q134 134 134 322q0 233 -197 346q-101 57 -152 57t-54 -55z" />
    <glyph glyph-name="chi" unicode="&#x3c7;" horiz-adv-x="1095" 
d="M548 269l-389 -638h-102l439 722l-382 629h103l331 -544l330 544h103l-382 -629l439 -722h-102z" />
    <glyph glyph-name="psi" unicode="&#x3c8;" horiz-adv-x="1319" 
d="M708 -17v-341h-97v341q-201 13 -347 161q-162 160 -162 387v452h96v-452q0 -188 133 -321q129 -130 272 -130h8v903h97v-903h8q144 0 273 130q132 133 132 321v452h97v-452q0 -227 -162 -387q-146 -148 -348 -161z" />
    <glyph glyph-name="omega" unicode="&#x3c9;" horiz-adv-x="1539" 
d="M732 223h-7v529h89v-529h-9q8 -12 16 -23q6 -8 13 -15q59 -130 212 -130q154 0 236 119t82 375q0 233 -120 417v16h89q126 -216 126 -433q0 -284 -103.5 -430.5t-296.5 -146.5q-191 0 -289 159q-97 -159 -288 -159q-194 0 -298.5 146.5t-104.5 430.5q0 220 135 433h90v-9
q-130 -170 -130 -424q0 -256 82 -375t236 -119t214 130q6 8 11 16q8 10 15 22z" />
    <glyph glyph-name="iotadieresis" unicode="&#x3ca;" horiz-adv-x="417" 
d="M253 982v-982h-89v982h89zM122.5 1304q26.5 -26 26.5 -63q0 -38 -26.5 -64t-63.5 -26t-63.5 26t-26.5 64q0 37 26.5 63t63.5 26t63.5 -26zM422.5 1304q26.5 -26 26.5 -63q0 -38 -26.5 -64t-63.5 -26t-63.5 26t-26.5 64q0 37 26.5 63t63.5 26t63.5 -26z" />
    <glyph glyph-name="upsilondieresis" unicode="&#x3cb;" horiz-adv-x="1099" 
d="M555 -14q-184 0 -293 109t-112 275v612h90v-604q0 -125 91 -213q90 -89 223 -89q124 0 214.5 88.5t90.5 213.5v604h90v-612q-3 -166 -112 -275t-282 -109zM463.5 1304q26.5 -26 26.5 -63q0 -38 -26.5 -64t-63.5 -26t-63.5 26t-26.5 64q0 37 26.5 63t63.5 26t63.5 -26z
M763.5 1304q26.5 -26 26.5 -63q0 -38 -26.5 -64t-63.5 -26t-63.5 26t-26.5 64q0 37 26.5 63t63.5 26t63.5 -26z" />
    <glyph glyph-name="omicrontonos" unicode="&#x3cc;" horiz-adv-x="1278" 
d="M639 1071q228 0 388.5 -161t160.5 -389q0 -227 -160.5 -388t-388.5 -161q-227 0 -388 161t-161 388q0 228 161 389t388 161zM318 842q-133 -133 -133 -321t133 -320.5t321 -132.5t321 132.5t133 320.5t-133 321t-321 133t-321 -133zM858 1600l-245 -187h-84l163 187h166z
" />
    <glyph glyph-name="upsilontonos" unicode="&#x3cd;" horiz-adv-x="1099" 
d="M555 -14q-184 0 -293 109t-112 275v612h90v-604q0 -125 91 -213q90 -89 223 -89q124 0 214.5 88.5t90.5 213.5v604h90v-612q-3 -166 -112 -275t-282 -109zM769 1600l-245 -187h-84l163 187h166z" />
    <glyph glyph-name="omegatonos" unicode="&#x3ce;" horiz-adv-x="1539" 
d="M732 223h-7v529h89v-529h-9q8 -12 16 -23q6 -8 13 -15q59 -130 212 -130q154 0 236 119t82 375q0 233 -120 417v16h89q126 -216 126 -433q0 -284 -103.5 -430.5t-296.5 -146.5q-191 0 -289 159q-97 -159 -288 -159q-194 0 -298.5 146.5t-104.5 430.5q0 220 135 433h90v-9
q-130 -170 -130 -424q0 -256 82 -375t236 -119t214 130q6 8 11 16q8 10 15 22zM988 1600l-245 -187h-84l163 187h166z" />
    <glyph glyph-name="afii10023" unicode="&#x401;" horiz-adv-x="1075" 
d="M950 1600v-90h-710v-665h710v-90h-710v-665h710v-90h-800v1600h800zM463.5 1922q26.5 -26 26.5 -63q0 -38 -26.5 -64t-63.5 -26t-63.5 26t-26.5 64q0 37 26.5 63t63.5 26t63.5 -26zM763.5 1922q26.5 -26 26.5 -63q0 -38 -26.5 -64t-63.5 -26t-63.5 26t-26.5 64
q0 37 26.5 63t63.5 26t63.5 -26z" />
    <glyph glyph-name="afii10051" unicode="&#x402;" horiz-adv-x="1637" 
d="M562 561v-561h-89v1509h-405v91h900v-91h-406v-704q28 37 63 69q150 139 383 139t391 -139q148 -112 148 -403q0 -294 -148 -416q-43 -37 -91 -65l-60 65q37 23 73 53q133 117 135 351q-2 233 -135 350q-136 119 -323 119q-188 0 -312 -119q-113 -108 -124 -248z" />
    <glyph glyph-name="afii10052" unicode="&#x403;" horiz-adv-x="886" 
d="M827 1600v-91h-609v-1509h-91v1600h700zM697 2005l-245 -187h-84l163 187h166z" />
    <glyph glyph-name="afii10053" unicode="&#x404;" horiz-adv-x="1757" 
d="M1188 847v-90h-985q14 -273 213 -471q213 -214 514 -214q302 0 516 214q115 114 168 255h98q-59 -178 -200 -319q-241 -241 -582 -241q-339 0 -579.5 240t-240.5 581q0 340 240.5 580t579.5 240q341 0 582 -239q70 -72 119 -150h-111q-33 43 -74 84q-214 214 -516 214
q-301 0 -514 -214q-199 -198 -213 -470h985z" />
    <glyph glyph-name="afii10054" unicode="&#x405;" horiz-adv-x="1042" 
d="M548 886q-171 57 -270 156t-99 240q0 138 99 237.5t240 99.5q140 0 240 -99q55 -53 76 -119l-81 -32q-18 49 -59 90q-73 72 -176 72t-176 -72.5t-73 -176.5q0 -103 73 -176q68 -67 188 -123q192 -62 323 -193q139 -138 139 -334q0 -197 -139 -336t-335 -139t-335 140
q-111 111 -133 258l85 31q14 -130 111 -227q113 -113 272 -113q160 0 273 113t113 273q0 159 -113 272q-99 99 -243 158z" />
    <glyph glyph-name="afii10055" unicode="&#x406;" 
d="M260 1600v-1600h-90v1600h90z" />
    <glyph glyph-name="afii10056" unicode="&#x407;" 
d="M260 1600v-1600h-90v1600h90zM128.5 1922q26.5 -26 26.5 -63q0 -38 -26.5 -64t-63.5 -26t-63.5 26t-26.5 64q0 37 26.5 63t63.5 26t63.5 -26zM428.5 1922q26.5 -26 26.5 -63q0 -38 -26.5 -64t-63.5 -26t-63.5 26t-26.5 64q0 37 26.5 63t63.5 26t63.5 -26z" />
    <glyph glyph-name="afii10057" unicode="&#x408;" horiz-adv-x="857" 
d="M702 304q0 -152 -80 -232q-85 -86 -206 -86t-206 85.5t-85 187.5l59 23q20 -108 85 -162q54 -46 122 -46q12 0 25 2q83 0 143 59q53 53 53 179v1286h90v-1296z" />
    <glyph glyph-name="afii10058" unicode="&#x409;" horiz-adv-x="2248" 
d="M1162 0v1509h-819v-1226q0 -122 -82.5 -205.5t-203.5 -83.5v91q83 0 140 56q56 56 56 153v1306h1000v-757h524q166 -4 274.5 -123t108.5 -292q0 -185 -108.5 -305t-274.5 -123h-615zM1253 752v-662h516q124 0 213 101.5t89 234.5q0 125 -89 225.5t-213 100.5h-516z" />
    <glyph glyph-name="afii10059" unicode="&#x40a;" horiz-adv-x="2110" 
d="M1023 0v755h-819v-755h-91v1600h91v-755h819v755h90v-757h534q167 -4 275.5 -123t108.5 -292q0 -185 -108.5 -305t-275.5 -123h-624zM1113 752v-662h526q125 0 214 101.5t89 234.5q0 125 -89 225.5t-214 100.5h-526z" />
    <glyph glyph-name="afii10060" unicode="&#x40b;" horiz-adv-x="1635" 
d="M553 561v-561h-89v1509h-405v91h900v-91h-406v-704q28 37 63 69q150 139 383 139t379 -139q144 -138 144 -432v-442h-98l1 451q0 239 -125 364q-119 118 -295 118h-16q-188 -5 -312 -124q-112 -108 -124 -248z" />
    <glyph glyph-name="afii10061" unicode="&#x40c;" horiz-adv-x="1097" 
d="M240 775v-775h-90v1600h90v-681l511 681h116l-480 -644l620 -956h-111l-568 884zM697 2005l-245 -187h-84l163 187h166z" />
    <glyph glyph-name="uni040D" unicode="&#x40d;" horiz-adv-x="1515" 
d="M1391 1600v-1600h-90v1455l-1039 -1455h-139v1600h91v-1490l1063 1490h114zM683 2005l163 -187h-84l-245 187h166z" />
    <glyph glyph-name="afii10062" unicode="&#x40e;" horiz-adv-x="1275" 
d="M368 64q-100 -77 -186 -77q-55 0 -106 32l44 79q50 -27 95 -27q21 0 40 6q61 17 226 270l142 231l-668 1022h103l613 -937l547 937h103q-790 -1409 -953 -1536zM477 1956q8 -53 46 -91q48 -48 116 -48q67 0 115 48q39 38 46 91h73q-8 -83 -68 -143q-68 -69 -166 -69
q-99 0 -167 69q-65 66 -69 143h74z" />
    <glyph glyph-name="afii10145" unicode="&#x40f;" horiz-adv-x="1275" 
d="M589 1h-487v1599h91v-1509h890v1509h91v-1600h-496v-375h-89v376z" />
    <glyph glyph-name="afii10017" unicode="&#x410;" horiz-adv-x="1291" 
d="M890 703l-244 671l-244 -671h488zM923 613h-554l-223 -613h-96l596 1637l595 -1637h-95z" />
    <glyph glyph-name="afii10018" unicode="&#x411;" horiz-adv-x="1166" 
d="M119 845v755h700v-91h-610v-664h517q167 -3 275.5 -122.5t108.5 -292.5q0 -185 -108.5 -305t-275.5 -123h-517v-2h-90v2h-6v91h6v662h-6v90h6zM209 755v-662h509q125 0 213.5 101t88.5 235q0 124 -88.5 225t-213.5 101h-509z" />
    <glyph glyph-name="afii10019" unicode="&#x412;" horiz-adv-x="1066" 
d="M434 1600q123 0 210.5 -87t87.5 -210q0 -124 -127 -231q112 -23 211 -132q160 -161 160 -389q0 -227 -160 -393q-149 -154 -356 -157v-1h-310v1600h284zM240 1005v-915h220v-1q167 11 288 137q133 137 133 325t-133 321t-321 133h-187zM240 1510v-409h217q75 7 128 56
q61 56 61 146t-61 148.5t-151 58.5h-194z" />
    <glyph glyph-name="afii10020" unicode="&#x413;" horiz-adv-x="886" 
d="M827 1600v-91h-609v-1509h-91v1600h700z" />
    <glyph glyph-name="afii10021" unicode="&#x414;" horiz-adv-x="1323" 
d="M1041 98v1411h-578q33 -162 33 -348q0 -681 -356 -1063h901zM1133 98h88v-473h-89v375h-1020v-375h-89v473h10q372 428 372 1063q0 188 -57 439h784z" />
    <glyph glyph-name="afii10022" unicode="&#x415;" horiz-adv-x="1075" 
d="M950 1600v-90h-710v-665h710v-90h-710v-665h710v-90h-800v1600h800z" />
    <glyph glyph-name="afii10024" unicode="&#x416;" horiz-adv-x="1915" 
d="M1003 835l535 765h109l-415 -601l699 -999h-109l-648 924l-171 -245v-679h-91v679l-171 245l-647 -924h-110l699 999l-415 601h110l534 -765v765h91v-765z" />
    <glyph glyph-name="afii10025" unicode="&#x417;" horiz-adv-x="1045" 
d="M551 760h-378v90h378q152 0 235.5 95.5t83.5 249.5t-107.5 241.5t-249.5 87.5q-233 0 -411 -131v88q171 127 388 127q205 0 340 -109.5t135 -291.5q0 -282 -193 -402q193 -97 193 -401q0 -182 -135 -292.5t-340 -110.5q-221 0 -388 135v113q134 -153 388 -153
q143 0 261.5 82t118.5 236t-83.5 250t-235.5 96z" />
    <glyph glyph-name="afii10026" unicode="&#x418;" horiz-adv-x="1515" 
d="M1391 1600v-1600h-90v1455l-1039 -1455h-139v1600h91v-1490l1063 1490h114z" />
    <glyph glyph-name="afii10027" unicode="&#x419;" horiz-adv-x="1515" 
d="M1391 1600v-1600h-90v1455l-1039 -1455h-139v1600h91v-1490l1063 1490h114zM596 1956q8 -53 46 -91q48 -48 116 -48q67 0 115 48q39 38 46 91h73q-8 -83 -68 -143q-68 -69 -166 -69q-99 0 -167 69q-65 66 -69 143h74z" />
    <glyph glyph-name="afii10028" unicode="&#x41a;" horiz-adv-x="1097" 
d="M240 775v-775h-90v1600h90v-681l511 681h116l-480 -644l620 -956h-111l-568 884z" />
    <glyph glyph-name="afii10029" unicode="&#x41b;" horiz-adv-x="1359" 
d="M343 283q0 -122 -82.5 -205.5t-203.5 -83.5v91q83 0 140 56q56 56 56 153v1306h1000v-1600h-91v1509h-819v-1226z" />
    <glyph glyph-name="afii10030" unicode="&#x41c;" horiz-adv-x="1707" 
d="M253 1600l601 -1040l600 1040h103l-4 -7v-1593h-90v1437l-609 -1054l-610 1054v-1437h-90v1593l-4 7h103z" />
    <glyph glyph-name="afii10031" unicode="&#x41d;" horiz-adv-x="1150" 
d="M240 717v-717h-90v1600h90v-793h670v793h90v-1600h-90v717h-670z" />
    <glyph glyph-name="afii10032" unicode="&#x41e;" horiz-adv-x="1892" 
d="M1526.5 1382.5q240.5 -240.5 240.5 -580.5t-240.5 -580.5t-580.5 -240.5t-580.5 240.5t-240.5 580.5t240.5 580.5t580.5 240.5t580.5 -240.5zM946 1531q-302 0 -515.5 -213.5t-213.5 -515.5t213.5 -516t515.5 -214t515.5 214t213.5 516t-213.5 515.5t-515.5 213.5z" />
    <glyph glyph-name="afii10033" unicode="&#x41f;" horiz-adv-x="1213" 
d="M197 1509v-1509h-91v1600h1000v-1600h-90v1509h-819z" />
    <glyph glyph-name="afii10034" unicode="&#x420;" horiz-adv-x="1089" 
d="M240 555v-555h-90v1600h420q183 -25 311 -153q153 -153 153 -369q0 -217 -153 -370t-369 -153h-272zM240 1509v-863h272q178 0 304.5 126.5t126.5 305.5t-126.5 305t-304.5 126h-272z" />
    <glyph glyph-name="afii10035" unicode="&#x421;" horiz-adv-x="1595" 
d="M1427 255l68 -61q-234 -213 -551 -213q-340 0 -579.5 239.5t-239.5 579.5q0 339 239.5 579t579.5 240q317 0 551 -213l-68 -62q-206 183 -483 183q-301 0 -514 -213t-213 -514q0 -302 213 -515t514 -213q277 0 483 183z" />
    <glyph glyph-name="afii10036" unicode="&#x422;" horiz-adv-x="1000" 
d="M545 1510v-1510h-90v1510h-405v90h900v-90h-405z" />
    <glyph glyph-name="afii10037" unicode="&#x423;" horiz-adv-x="1275" 
d="M368 64q-100 -77 -186 -77q-55 0 -106 32l44 79q50 -27 95 -27q21 0 40 6q61 17 226 270l142 231l-668 1022h103l613 -937l547 937h103q-790 -1409 -953 -1536z" />
    <glyph glyph-name="afii10038" unicode="&#x424;" horiz-adv-x="1601" 
d="M755 392v787q-267 -8 -422 -114q-168 -116 -168 -279q0 -164 168 -279q155 -107 422 -115zM845 293v-289h-90v289q-308 9 -490 145q-197 145 -197 348q0 205 197 350q182 133 490 142v320h90v-320q310 -9 493 -142q195 -145 195 -350q0 -203 -195 -348
q-183 -136 -493 -145zM845 1179v-787q269 8 424 115q167 115 167 279q0 163 -167 279q-155 106 -424 114z" />
    <glyph glyph-name="afii10039" unicode="&#x425;" horiz-adv-x="1218" 
d="M50 0l507 879l-416 721h103l364 -632l366 632h103l-418 -721l509 -879h-103l-457 790l-456 -790h-102z" />
    <glyph glyph-name="afii10040" unicode="&#x426;" horiz-adv-x="1292" 
d="M1180 0h-1067v1600h91v-1510h890v1510h91v-1503h84v-472h-89v375z" />
    <glyph glyph-name="afii10041" unicode="&#x427;" horiz-adv-x="1242" 
d="M1061 1040v560h89v-1600h-89v795q-28 -36 -63 -68q-150 -139 -383 -139t-378 139q-145 137 -145 431v442h98l-1 -451q0 -238 125 -363q119 -119 295 -119h17q187 6 311 125q112 107 124 248z" />
    <glyph glyph-name="afii10042" unicode="&#x428;" horiz-adv-x="1826" 
d="M113 1600h91v-1509h664v1509h90v-1509h664v1509h91v-1599h-1600v1599z" />
    <glyph glyph-name="afii10043" unicode="&#x429;" horiz-adv-x="1828" 
d="M1708 1h-1595v1599h91v-1509h664v1509h90v-1509h664v1509h91v-1502h85v-473h-90v376z" />
    <glyph glyph-name="afii10044" unicode="&#x42a;" horiz-adv-x="1509" 
d="M407 843v666h-384v91h474v-757h522q166 -4 274.5 -123t108.5 -292q0 -185 -108.5 -305t-274.5 -123h-614v90h2v662h-2v91h2zM497 752v-662h514q124 0 213 101.5t89 234.5q0 125 -89 225.5t-213 100.5h-514z" />
    <glyph glyph-name="afii10045" unicode="&#x42b;" horiz-adv-x="1579" 
d="M1476 1600v-1600h-90v1600h90zM105 0v1600h91v-757h531q167 -4 275.5 -123t108.5 -292q0 -185 -108.5 -305t-275.5 -123h-622zM196 752v-662h523q125 0 214 101.5t89 234.5q0 125 -89 225.5t-214 100.5h-523z" />
    <glyph glyph-name="afii10046" unicode="&#x42c;" horiz-adv-x="1167" 
d="M105 0v1600h91v-757h531q167 -4 275.5 -123t108.5 -292q0 -185 -108.5 -305t-275.5 -123h-622zM196 752v-662h523q125 0 214 101.5t89 234.5q0 125 -89 225.5t-214 100.5h-523z" />
    <glyph glyph-name="afii10047" unicode="&#x42d;" horiz-adv-x="1774" 
d="M1579 847q-14 272 -212 470q-214 214 -515 214q-302 0 -516 -214q-41 -41 -74 -84h-112q50 78 120 150q241 239 582 239q339 0 579.5 -240t240.5 -580q0 -341 -240.5 -581t-579.5 -240q-341 0 -582 241q-142 141 -200 319h97q53 -141 169 -255q214 -214 516 -214
q301 0 515 214q198 198 212 471h-985v90h985z" />
    <glyph glyph-name="afii10048" unicode="&#x42e;" horiz-adv-x="2309" 
d="M1418 1531q-301 0 -515 -214t-214 -515q0 -302 214 -516t515 -214q302 0 515.5 214t213.5 516q0 301 -213.5 515t-515.5 214zM598 755h-394v-755h-91v1600h91v-755h394q15 312 240 538q240 239 580 239t580.5 -240t240.5 -580q0 -341 -240.5 -581t-580.5 -240t-580 241
q-224 223 -240 533z" />
    <glyph glyph-name="afii10049" unicode="&#x42f;" horiz-adv-x="1088" 
d="M613 1508q-178 0 -304.5 -125.5t-126.5 -304.5q0 -180 126.5 -306t304.5 -126h271v862h-271zM229 0h-111l369 569q-137 33 -243 139q-153 153 -153 370q0 215 153 369q128 128 311 153h420v-1600h-91v554h-271q-14 0 -28 1z" />
    <glyph glyph-name="afii10065" unicode="&#x430;" horiz-adv-x="1360" 
d="M1210 0h-90v200q-26 -35 -57 -67q-161 -161 -389 -161q-227 0 -388 161t-161 388q0 228 161 389t388 161q228 0 389 -161q31 -32 57 -67v139h90v-982zM1120 432v178q-25 132 -125 232q-133 133 -321 133t-321 -133t-133 -321t133 -320.5t321 -132.5t321 133
q100 100 125 231z" />
    <glyph glyph-name="afii10066" unicode="&#x431;" horiz-adv-x="1333" 
d="M249 520q0 -188 133 -320t321 -132t321 132t133 320t-133 321.5t-321 133.5t-321 -133.5t-133 -321.5zM205 755q40 83 111 155q161 160 387 160q228 0 388.5 -160.5t160.5 -389.5q0 -226 -160.5 -387t-388.5 -161q-226 0 -387 161q-144 143 -160 338h-8q-38 190 -38 349
q0 318 150 521q186 251 430 251q51 0 103 -10q140 -29 227 -29q105 0 132 42v-89q-27 -40 -125 -40q-83 0 -218 29q-53 11 -102 11q-226 0 -383 -232q-121 -178 -121 -450q0 -34 2 -69z" />
    <glyph glyph-name="afii10067" unicode="&#x432;" horiz-adv-x="854" 
d="M202 542h280v1q97 4 149.5 57t52.5 118t-52.5 117.5t-149.5 57.5v1h-280v-352zM202 442v-352h280v1q97 5 149.5 57.5t52.5 117.5t-52.5 118t-149.5 57v1h-280zM113 984h372v-1q130 -6 210 -85.5t80 -179.5v-1q0 -99 -79 -179q-29 -28 -61 -46q32 -18 61 -45
q79 -81 79 -180v-1q0 -100 -80 -179.5t-210 -85.5v-1h-372v984z" />
    <glyph glyph-name="afii10068" unicode="&#x433;" horiz-adv-x="687" 
d="M202 891v-891h-89v982h494v-91h-405z" />
    <glyph glyph-name="afii10069" unicode="&#x434;" horiz-adv-x="1074" 
d="M938 98h80v-473h-90v375h-782v-375h-89v473h80q3 3 5 4q213 212 213 628q0 85 -9 161q-6 47 -15 91h607v-884zM255 90h594v801h-411q8 -76 8 -161q0 -405 -191 -640z" />
    <glyph glyph-name="afii10070" unicode="&#x435;" horiz-adv-x="1177" 
d="M337 184q127 -116 302 -116q188 0 321 133q17 17 32 35l95 -34q-26 -36 -59 -69q-161 -161 -389 -161q-227 0 -388 161t-161 389q0 227 161 388t388 161q195 0 341 -117q24 -20 48 -44q9 -9 17 -18l-68 -68zM911 885q-117 90 -272 90q-187 0 -320 -132.5t-133 -320.5
q0 -155 90 -272z" />
    <glyph glyph-name="afii10072" unicode="&#x436;" horiz-adv-x="1352" 
d="M721 533l385 449h116l-243 -300l386 -682h-111l-333 610l-200 -221v-389h-91v389l-199 221l-334 -610h-111l386 682l-242 300h115l385 -449v449h91v-449z" />
    <glyph glyph-name="afii10073" unicode="&#x437;" horiz-adv-x="856" 
d="M615 494q30 -16 57 -36q105 -79 105 -190t-104.5 -190t-251.5 -79t-251 79t-104 190v10h96v-10q0 -81 76 -138.5t183 -57.5q108 0 183.5 57.5t75.5 138.5t-75 139q-46 33 -101 48h-226v89h258q37 15 69 39q75 56 75 138q0 81 -75.5 138t-183.5 57q-107 0 -183 -56
q-66 -51 -75 -119h-96q9 98 103 170q104 79 251 79t251.5 -79.5t104.5 -189.5q0 -111 -105 -190q-27 -21 -57 -37z" />
    <glyph glyph-name="afii10074" unicode="&#x438;" horiz-adv-x="1017" 
d="M102 982h89v-832l628 832h97v-982h-90v839l-635 -838v-1h-89v982z" />
    <glyph glyph-name="afii10075" unicode="&#x439;" horiz-adv-x="1017" 
d="M102 982h89v-832l628 832h97v-982h-90v839l-635 -838v-1h-89v982zM348 1338q8 -53 46 -91q48 -48 116 -48q67 0 115 48q39 38 46 91h73q-8 -83 -68 -143q-68 -69 -166 -69q-99 0 -167 69q-65 66 -69 143h74z" />
    <glyph glyph-name="afii10076" unicode="&#x43a;" horiz-adv-x="835" 
d="M705 982l-242 -300l385 -682h-110l-334 610l-200 -222v-388h-91v982h91v-450l385 450h116z" />
    <glyph glyph-name="afii10077" unicode="&#x43b;" horiz-adv-x="1114" 
d="M1012 982v-982h-89v891h-656v-665q0 -210 -210 -227v89q121 14 121 136v758h834z" />
    <glyph glyph-name="afii10078" unicode="&#x43c;" horiz-adv-x="1108" 
d="M555 134l367 848h96v-982h-90v760l-329 -760h-89l-330 760v-760h-89v982h96z" />
    <glyph glyph-name="afii10079" unicode="&#x43d;" horiz-adv-x="1015" 
d="M925 0h-89v486h-656v-486h-89v982h89v-405h656v405h89v-982z" />
    <glyph glyph-name="afii10080" unicode="&#x43e;" horiz-adv-x="1278" 
d="M639 1071q228 0 388.5 -161t160.5 -389q0 -227 -160.5 -388t-388.5 -161q-227 0 -388 161t-161 388q0 228 161 389t388 161zM318 842q-133 -133 -133 -321t133 -320.5t321 -132.5t321 132.5t133 320.5t-133 321t-321 133t-321 -133z" />
    <glyph glyph-name="afii10081" unicode="&#x43f;" horiz-adv-x="1038" 
d="M191 891v-891h-89v982h834v-982h-89v891h-656z" />
    <glyph glyph-name="afii10082" unicode="&#x440;" horiz-adv-x="1334" 
d="M150 982h90v-138q25 34 57 66q161 160 388 160q228 0 388.5 -160.5t160.5 -388.5q0 -227 -160.5 -388t-388.5 -161q-227 0 -388 161q-32 32 -57 66v-574h-90v1357zM240 615v-188q26 -129 124 -227q133 -133 321 -133t321 133t133 321t-133 321t-321 133t-321 -133
q-98 -98 -124 -227z" />
    <glyph glyph-name="afii10083" unicode="&#x441;" horiz-adv-x="1177" 
d="M992 236l95 -34q-26 -36 -59 -69q-161 -161 -389 -161q-227 0 -388 161t-161 389q0 227 161 388t388 161q228 0 389 -161q33 -33 59 -68l-95 -35q-15 18 -32 36q-133 132 -321 132q-187 0 -320 -132.5t-133 -320.5t133 -321t320 -133q188 0 321 133q17 17 32 35z" />
    <glyph glyph-name="afii10084" unicode="&#x442;" horiz-adv-x="1081" 
d="M585 891v-891h-89v891h-405v91h900v-91h-406z" />
    <glyph glyph-name="afii10085" unicode="&#x443;" horiz-adv-x="881" 
d="M232 -374h-101l259 556l-373 800h101l322 -686l324 686h100z" />
    <glyph glyph-name="afii10086" unicode="&#x444;" horiz-adv-x="2227" 
d="M1158 632v-224q29 -117 120 -208q133 -133 321 -133q187 0 320 132.5t133 320.5t-133 321.5t-320 133.5q-188 0 -321 -133q-91 -91 -120 -210zM1068 408v224q-28 119 -120 210q-132 133 -320 133t-321 -133.5t-133 -321.5t133 -320.5t321 -132.5t320 133q92 91 120 208z
M1158 848q24 32 53 62q161 159 388 159q228 0 388 -160t160 -389q0 -226 -160 -387t-388 -161q-227 0 -388 161q-29 29 -53 60v-551h-90v551q-24 -31 -52 -60q-162 -161 -388 -161q-229 0 -389 161t-160 387q0 229 160 389t389 160q226 0 388 -159q28 -30 52 -62v551h90
v-551z" />
    <glyph glyph-name="afii10087" unicode="&#x445;" horiz-adv-x="721" 
d="M322 519l-288 463h105l236 -379l235 379h105l-288 -463l322 -519h-104l-270 434l-271 -434h-104z" />
    <glyph glyph-name="afii10088" unicode="&#x446;" horiz-adv-x="1074" 
d="M937 0h-824v982h89v-892h656v892h89v-884h79v-473h-89v375z" />
    <glyph glyph-name="afii10089" unicode="&#x447;" horiz-adv-x="1196" 
d="M1003 812v177h90v-989h-90v560q-22 -32 -51 -59q-139 -139 -372 -139t-366 139q-134 137 -134 431v57h98l-1 -66q0 -239 113 -363q109 -119 284 -119h17q187 6 300 125q102 106 112 246z" />
    <glyph glyph-name="afii10090" unicode="&#x448;" horiz-adv-x="1351" 
d="M102 982h91v-891h437v891h91v-891h438v891h90v-981h-1147v981z" />
    <glyph glyph-name="afii10091" unicode="&#x449;" horiz-adv-x="1401" 
d="M1267 1h-1143v981h91v-891h437v891h91v-891h438v891h90v-884h85v-473h-89v376z" />
    <glyph glyph-name="afii10092" unicode="&#x44a;" horiz-adv-x="1201" 
d="M287 0v891h-253v91h343v-404h421v-1q130 -6 220 -85q92 -80 92 -203v-1q0 -122 -92 -202q-90 -79 -220 -85v-1h-511zM377 90h417v1q98 5 162 58q64 52 64 139q0 89 -64 142q-64 52 -162 56v2h-417v-398z" />
    <glyph glyph-name="afii10093" unicode="&#x44b;" horiz-adv-x="1447" 
d="M202 90h531v1q97 5 162 58q63 52 63 139q0 89 -63 142q-65 52 -162 56v2h-531v-398zM1334 0h-89v982h89v-982zM113 0v982h89v-404h534v-1q131 -6 221 -85q92 -80 92 -203v-1q0 -122 -92 -202q-90 -79 -221 -85v-1h-623z" />
    <glyph glyph-name="afii10094" unicode="&#x44c;" horiz-adv-x="1015" 
d="M202 90h418v1q97 5 162 58q63 52 63 139q0 89 -63 142q-65 52 -162 56v2h-418v-398zM113 0v982h89v-404h421v-1q130 -6 221 -85q92 -80 92 -203v-1q0 -122 -92 -202q-91 -79 -221 -85v-1h-510z" />
    <glyph glyph-name="afii10095" unicode="&#x44d;" horiz-adv-x="1224" 
d="M1022 663q-32 98 -112 179q-133 133 -321 133t-321 -133q-55 -55 -86 -123h-101q34 105 119 191q160 160 389 160q226 0 387.5 -160.5t161.5 -389.5q0 -226 -161.5 -387t-387.5 -161q-229 0 -389 161q-32 31 -51 54h133q129 -119 307 -119q188 0 321 132t133 320
q0 27 -4 51h-614v92h597z" />
    <glyph glyph-name="afii10096" unicode="&#x44e;" horiz-adv-x="1719" 
d="M637 520q0 -188 133 -320t321 -132q187 0 320 132t133 320t-133 321.5t-320 133.5q-188 0 -321 -133.5t-133 -321.5zM543 486h-341v-486h-89v982h89v-405h342q18 192 160 333q160 160 387 160q228 0 388 -160.5t160 -389.5q0 -226 -160 -387t-388 -161q-227 0 -387 161
q-150 149 -161 353z" />
    <glyph glyph-name="afii10097" unicode="&#x44f;" horiz-adv-x="902" 
d="M699 891h-304v-1q-98 -4 -161 -56q-64 -53 -64 -141t64 -140q63 -53 161 -58v-1h304v397zM788 982v-982h-89v404h-241l-21 -47l-58 -123l-109 -234h-99l190 407q-111 13 -190 83q-92 80 -92 202v1q0 123 92 203q90 79 220 85v1h397z" />
    <glyph glyph-name="afii10071" unicode="&#x451;" horiz-adv-x="1177" 
d="M337 184q127 -116 302 -116q188 0 321 133q17 17 32 35l95 -34q-26 -36 -59 -69q-161 -161 -389 -161q-227 0 -388 161t-161 389q0 227 161 388t388 161q195 0 341 -117q24 -20 48 -44q9 -9 17 -18l-68 -68zM911 885q-117 90 -272 90q-187 0 -320 -132.5t-133 -320.5
q0 -155 90 -272zM502.5 1304q26.5 -26 26.5 -63q0 -38 -26.5 -64t-63.5 -26t-63.5 26t-26.5 64q0 37 26.5 63t63.5 26t63.5 -26zM802.5 1304q26.5 -26 26.5 -63q0 -38 -26.5 -64t-63.5 -26t-63.5 26t-26.5 64q0 37 26.5 63t63.5 26t63.5 -26z" />
    <glyph glyph-name="afii10099" unicode="&#x452;" horiz-adv-x="1009" 
d="M805 648q0 126 -90.5 214t-214.5 88t-213 -87q-41 -39 -60 -82v-781h-91v1283h-113v89h113v228h91v-228h219v-89h-219v-352q113 110 273 110q174 0 283 -109.5t112 -274.5v-714q0 -122 -82.5 -205t-203.5 -83v90q83 0 140 57q56 55 56 153v693z" />
    <glyph glyph-name="afii10100" unicode="&#x453;" horiz-adv-x="687" 
d="M202 891v-891h-89v982h494v-91h-405zM580 1387l-245 -187h-84l163 187h166z" />
    <glyph glyph-name="afii10101" unicode="&#x454;" horiz-adv-x="1224" 
d="M794 663v-92h-615q-3 -24 -3 -51q0 -188 133 -320t321 -132q177 0 306 119h134q-19 -23 -51 -54q-161 -161 -389 -161q-227 0 -388 161t-161 387q0 229 161 389.5t388 160.5q228 0 389 -160q85 -86 119 -191h-101q-32 68 -86 123q-133 133 -321 133t-322 -133
q-79 -81 -112 -179h598z" />
    <glyph glyph-name="afii10102" unicode="&#x455;" horiz-adv-x="802" 
d="M420 505q-115 62 -159 106q-69 69 -69 166q0 98 69 167.5t166 69.5q98 0 162 -64q62 -63 62 -143v-5l-78 -31q-10 76 -47.5 114t-98.5 38q-60 0 -103 -42.5t-43 -103.5q0 -60 43 -103q25 -25 106 -76q128 -70 182 -124q85 -86 85 -205q0 -122 -85 -207.5t-206 -85.5
t-206 85.5t-85 187.5l89 23q0 -88 59.5 -147t142.5 -59t142.5 59t59.5 144q0 83 -59 142q-32 32 -129 94z" />
    <glyph glyph-name="afii10103" unicode="&#x456;" 
d="M260 982v-982h-90v982h90zM278.5 1304q26.5 -26 26.5 -63q0 -38 -26.5 -64t-63.5 -26t-63.5 26t-26.5 64q0 37 26.5 63t63.5 26t63.5 -26z" />
    <glyph glyph-name="afii10104" unicode="&#x457;" 
d="M260 982v-982h-90v982h90zM128.5 1304q26.5 -26 26.5 -63q0 -38 -26.5 -64t-63.5 -26t-63.5 26t-26.5 64q0 37 26.5 63t63.5 26t63.5 -26zM428.5 1304q26.5 -26 26.5 -63q0 -38 -26.5 -64t-63.5 -26t-63.5 26t-26.5 64q0 37 26.5 63t63.5 26t63.5 -26z" />
    <glyph glyph-name="afii10105" unicode="&#x458;" horiz-adv-x="455" 
d="M49 -138q121 14 121 136v984h90v-982q0 -211 -211 -228v90zM278.5 1304q26.5 -26 26.5 -63q0 -38 -26.5 -64t-63.5 -26t-63.5 26t-26.5 64q0 37 26.5 63t63.5 26t63.5 -26z" />
    <glyph glyph-name="afii10106" unicode="&#x459;" horiz-adv-x="1828" 
d="M1016 90h417v1q98 5 162 58q64 52 64 139q0 89 -64 142q-64 52 -162 56v2h-417v-398zM925 891h-656v-665q0 -210 -210 -227v89q121 14 121 136v758h834v-402l423 -2v-1q130 -6 220 -85q92 -80 92 -203v-1q0 -122 -92 -202q-90 -79 -220 -85v-1h-512v891z" />
    <glyph glyph-name="afii10107" unicode="&#x45a;" horiz-adv-x="1748" 
d="M936 90h417v1q98 5 162 58q64 52 64 139q0 89 -64 142q-64 52 -162 56v2h-417v-398zM847 0v486h-656v-486h-89v982h89v-405h656v405h89v-404h421v-1q130 -6 220 -85q92 -80 92 -203v-1q0 -122 -92 -202q-90 -79 -220 -85v-1h-510z" />
    <glyph glyph-name="afii10108" unicode="&#x45b;" horiz-adv-x="1009" 
d="M136 1372v228h91v-228h219v-89h-219v-352q113 110 273 110q174 0 283 -109.5t112 -274.5v-657h-90v648q0 126 -90.5 214t-214.5 88t-213 -87q-41 -39 -60 -82v-781h-91v1283h-113v89h113z" />
    <glyph glyph-name="afii10109" unicode="&#x45c;" horiz-adv-x="835" 
d="M705 982l-242 -300l385 -682h-110l-334 610l-200 -222v-388h-91v982h91v-450l385 450h116zM587 1378l-245 -187h-84l163 187h166z" />
    <glyph glyph-name="uni045D" unicode="&#x45d;" horiz-adv-x="1017" 
d="M102 982h89v-832l628 832h97v-982h-90v839l-635 -838v-1h-89v982zM454 1387l163 -187h-84l-245 187h166z" />
    <glyph glyph-name="afii10110" unicode="&#x45e;" horiz-adv-x="1005" 
d="M503 88l-222 -463h-88l265 556l-383 801h102l326 -704l326 704h101l-427 -895v1zM342 1338q8 -53 46 -91q48 -48 116 -48q67 0 115 48q39 38 46 91h73q-8 -83 -68 -143q-68 -69 -166 -69q-99 0 -167 69q-65 66 -69 143h74z" />
    <glyph glyph-name="afii10193" unicode="&#x45f;" horiz-adv-x="1038" 
d="M474 0h-372v982h89v-892h656v892h89v-982h-372v-375h-90v375z" />
    <glyph glyph-name="afii10050" unicode="&#x490;" horiz-adv-x="947" 
d="M827 1512v-3h-609v-1509h-91v1600h674v271h90v-359h-64z" />
    <glyph glyph-name="afii10098" unicode="&#x491;" horiz-adv-x="725" 
d="M202 891v-891h-89v982h466v270h90v-361h-467z" />
    <glyph glyph-name="Wgrave" unicode="&#x1e80;" horiz-adv-x="1672" 
d="M791 240v1360h90v-1360q23 -43 57 -77q90 -87 214 -87t214.5 88.5t90.5 213.5v1222h90v-1230q-3 -156 -115 -268q-116 -116 -280 -116q-163 0 -279 115q-21 20 -37 41q-16 -21 -37 -41q-116 -115 -279 -115q-164 0 -279 116q-113 112 -116 268v1230h90v-1222
q0 -125 90.5 -213.5t214.5 -88.5t214 87q34 34 57 77zM783 2005l163 -187h-84l-245 187h166z" />
    <glyph glyph-name="wgrave" unicode="&#x1e81;" horiz-adv-x="1375" 
d="M642 260v722h90v-700q0 -88 59.5 -147t142.5 -59t143 59q55 55 59 133h-1v714h90v-714q-4 -115 -85 -196q-85 -86 -206 -86t-206 86q-23 23 -40 48q-17 -25 -41 -48q-85 -86 -206 -86t-206 86q-81 81 -85 196v714h90v-714h-1q4 -78 60 -133q59 -59 142 -59t143 59
q51 51 58 125zM634 1387l163 -187h-84l-245 187h166z" />
    <glyph glyph-name="Wacute" unicode="&#x1e82;" horiz-adv-x="1672" 
d="M791 240v1360h90v-1360q23 -43 57 -77q90 -87 214 -87t214.5 88.5t90.5 213.5v1222h90v-1230q-3 -156 -115 -268q-116 -116 -280 -116q-163 0 -279 115q-21 20 -37 41q-16 -21 -37 -41q-116 -115 -279 -115q-164 0 -279 116q-113 112 -116 268v1230h90v-1222
q0 -125 90.5 -213.5t214.5 -88.5t214 87q34 34 57 77zM1055 2005l-245 -187h-84l163 187h166z" />
    <glyph glyph-name="wacute" unicode="&#x1e83;" horiz-adv-x="1375" 
d="M642 260v722h90v-700q0 -88 59.5 -147t142.5 -59t143 59q55 55 59 133h-1v714h90v-714q-4 -115 -85 -196q-85 -86 -206 -86t-206 86q-23 23 -40 48q-17 -25 -41 -48q-85 -86 -206 -86t-206 86q-81 81 -85 196v714h90v-714h-1q4 -78 60 -133q59 -59 142 -59t143 59
q51 51 58 125zM907 1387l-245 -187h-84l163 187h166z" />
    <glyph glyph-name="Wdieresis" unicode="&#x1e84;" horiz-adv-x="1672" 
d="M791 240v1360h90v-1360q23 -43 57 -77q90 -87 214 -87t214.5 88.5t90.5 213.5v1222h90v-1230q-3 -156 -115 -268q-116 -116 -280 -116q-163 0 -279 115q-21 20 -37 41q-16 -21 -37 -41q-116 -115 -279 -115q-164 0 -279 116q-113 112 -116 268v1230h90v-1222
q0 -125 90.5 -213.5t214.5 -88.5t214 87q34 34 57 77zM749.5 1922q26.5 -26 26.5 -63q0 -38 -26.5 -64t-63.5 -26t-63.5 26t-26.5 64q0 37 26.5 63t63.5 26t63.5 -26zM1049.5 1922q26.5 -26 26.5 -63q0 -38 -26.5 -64t-63.5 -26t-63.5 26t-26.5 64q0 37 26.5 63t63.5 26
t63.5 -26z" />
    <glyph glyph-name="wdieresis" unicode="&#x1e85;" horiz-adv-x="1375" 
d="M642 260v722h90v-700q0 -88 59.5 -147t142.5 -59t143 59q55 55 59 133h-1v714h90v-714q-4 -115 -85 -196q-85 -86 -206 -86t-206 86q-23 23 -40 48q-17 -25 -41 -48q-85 -86 -206 -86t-206 86q-81 81 -85 196v714h90v-714h-1q4 -78 60 -133q59 -59 142 -59t143 59
q51 51 58 125zM601.5 1304q26.5 -26 26.5 -63q0 -38 -26.5 -64t-63.5 -26t-63.5 26t-26.5 64q0 37 26.5 63t63.5 26t63.5 -26zM901.5 1304q26.5 -26 26.5 -63q0 -38 -26.5 -64t-63.5 -26t-63.5 26t-26.5 64q0 37 26.5 63t63.5 26t63.5 -26z" />
    <glyph glyph-name="Ygrave" unicode="&#x1ef2;" horiz-adv-x="1291" 
d="M600 647l-550 953h103l492 -853l493 853h103l-551 -953v-647h-90v647zM592 2005l163 -187h-84l-245 187h166z" />
    <glyph glyph-name="ygrave" unicode="&#x1ef3;" horiz-adv-x="1005" 
d="M503 88l-222 -463h-88l265 556l-383 801h102l326 -704l326 704h101l-427 -895v1zM449 1387l163 -187h-84l-245 187h166z" />
    <glyph glyph-name="endash" unicode="&#x2013;" horiz-adv-x="871" 
d="M50 637h771v-90h-771v90z" />
    <glyph glyph-name="emdash" unicode="&#x2014;" horiz-adv-x="1507" 
d="M50 637h1407v-90h-1407v90z" />
    <glyph glyph-name="afii00208" unicode="&#x2015;" horiz-adv-x="3072" 
d="M-75 637h2111v-90h-2111v90z" />
    <glyph glyph-name="underscoredbl" unicode="&#x2017;" horiz-adv-x="1050" 
d="M25 -255h1000v-90h-1000v90zM25 -30h1000v-90h-1000v90z" />
    <glyph glyph-name="quoteleft" unicode="&#x2018;" horiz-adv-x="280" 
d="M163 1461q23 -5 41 -23q26 -26 26 -64q0 -37 -26.5 -63t-63.5 -26t-63.5 26t-26.5 63q0 21 7 39l98 198h65z" />
    <glyph glyph-name="quoteright" unicode="&#x2019;" horiz-adv-x="280" 
d="M117 1435q-23 5 -40 23q-27 26 -27 64q0 37 26.5 63t63.5 26t63.5 -26t26.5 -63q0 -21 -7 -39l-98 -198h-65z" />
    <glyph glyph-name="quotesinglbase" unicode="&#x201a;" horiz-adv-x="280" 
d="M117 -13q-23 5 -40 23q-27 26 -27 64q0 37 26.5 63t63.5 26t63.5 -26t26.5 -63q0 -21 -7 -39l-98 -198h-65z" />
    <glyph glyph-name="quotereversed" unicode="&#x201b;" horiz-adv-x="280" 
d="M500 1285h-65l-98 198q-7 18 -7 39q0 37 26.5 63t63.5 26t63.5 -26t26.5 -63q0 -38 -27 -64q-17 -18 -40 -23z" />
    <glyph glyph-name="quotedblleft" unicode="&#x201c;" horiz-adv-x="532" 
d="M163 1461q23 -5 41 -23q26 -26 26 -64q0 -37 -26.5 -63t-63.5 -26t-63.5 26t-26.5 63q0 21 7 39l98 198h65zM415 1461q23 -5 41 -23q26 -26 26 -64q0 -37 -26.5 -63t-63.5 -26t-63.5 26t-26.5 63q0 21 7 39l98 198h65z" />
    <glyph glyph-name="quotedblright" unicode="&#x201d;" horiz-adv-x="532" 
d="M117 1435q-23 5 -40 23q-27 26 -27 64q0 37 26.5 63t63.5 26t63.5 -26t26.5 -63q0 -21 -7 -39l-98 -198h-65zM369 1435q-23 5 -40 23q-27 26 -27 64q0 37 26.5 63t63.5 26t63.5 -26t26.5 -63q0 -21 -7 -39l-98 -198h-65z" />
    <glyph glyph-name="quotedblbase" unicode="&#x201e;" horiz-adv-x="532" 
d="M117 -13q-23 5 -40 23q-27 26 -27 64q0 37 26.5 63t63.5 26t63.5 -26t26.5 -63q0 -21 -7 -39l-98 -198h-65zM369 -13q-23 5 -40 23q-27 26 -27 64q0 37 26.5 63t63.5 26t63.5 -26t26.5 -63q0 -21 -7 -39l-98 -198h-65z" />
    <glyph glyph-name="dagger" unicode="&#x2020;" horiz-adv-x="758" 
d="M350 1596v218h58v-218h250v-58h-250v-1365h-58v1365h-250v58h250z" />
    <glyph glyph-name="daggerdbl" unicode="&#x2021;" horiz-adv-x="758" 
d="M350 1538h-250v58h250v218h58v-218h250v-58h-250v-485h250v-58h-250v-822h-58v822h-250v58h250v485z" />
    <glyph glyph-name="bullet" unicode="&#x2022;" horiz-adv-x="758" 
d="M486.5 851q45.5 -44 45.5 -108q0 -63 -45.5 -107t-106.5 -44q-63 0 -108.5 44t-45.5 107q0 64 45.5 108t108.5 44q61 0 106.5 -44z" />
    <glyph glyph-name="ellipsis" unicode="&#x2026;" horiz-adv-x="2148" 
d="M253.5 139q26.5 -26 26.5 -63q0 -38 -26.5 -64t-63.5 -26t-63.5 26t-26.5 64q0 37 26.5 63t63.5 26t63.5 -26zM936.5 139q26.5 -26 26.5 -63q0 -38 -26.5 -64t-63.5 -26t-63.5 26t-26.5 64q0 37 26.5 63t63.5 26t63.5 -26zM1619.5 139q26.5 -26 26.5 -63q0 -38 -26.5 -64
t-63.5 -26t-63.5 26t-26.5 64q0 37 26.5 63t63.5 26t63.5 -26z" />
    <glyph glyph-name="perthousand" unicode="&#x2030;" horiz-adv-x="1772" 
d="M1107 1314l-918 -1311l-74 51l918 1311zM474.5 1147.5q67.5 -67.5 67.5 -163.5t-67.5 -163.5t-163.5 -67.5t-163.5 67.5t-67.5 163.5t67.5 163.5t163.5 67.5t163.5 -67.5zM311 1128q-60 0 -102 -42t-42 -102t42 -102t102 -42q59 0 101.5 42t42.5 102t-42.5 102t-101.5 42
zM1074.5 547.5q67.5 -67.5 67.5 -163.5t-67.5 -163.5t-163.5 -67.5t-163.5 67.5t-67.5 163.5t67.5 163.5t163.5 67.5t163.5 -67.5zM911 528q-60 0 -102 -42t-42 -102t42 -102t102 -42q59 0 101.5 42t42.5 102t-42.5 102t-101.5 42zM1624.5 547.5q67.5 -67.5 67.5 -163.5
t-67.5 -163.5t-163.5 -67.5t-163.5 67.5t-67.5 163.5t67.5 163.5t163.5 67.5t163.5 -67.5zM1461 528q-60 0 -102 -42t-42 -102t42 -102t102 -42q59 0 101.5 42t42.5 102t-42.5 102t-101.5 42z" />
    <glyph glyph-name="minute" unicode="&#x2032;" horiz-adv-x="340" 
d="M125 997v600h90v-600h-90z" />
    <glyph glyph-name="second" unicode="&#x2033;" horiz-adv-x="520" 
d="M125 997v600h90v-600h-90zM305 997v600h90v-600h-90z" />
    <glyph glyph-name="guilsinglleft" unicode="&#x2039;" horiz-adv-x="629" 
d="M100 462l429 460v-104l-331 -356l331 -356v-105z" />
    <glyph glyph-name="guilsinglright" unicode="&#x203a;" horiz-adv-x="629" 
d="M100 1v105l331 356l-331 356v104l429 -460z" />
    <glyph glyph-name="exclamdbl" unicode="&#x203c;" horiz-adv-x="860" 
d="M278.5 139q26.5 -26 26.5 -63q0 -38 -26.5 -64t-63.5 -26t-63.5 26t-26.5 64q0 37 26.5 63t63.5 26t63.5 -26zM258 1600v-1324h-90v1324h90zM708.5 139q26.5 -26 26.5 -63q0 -38 -26.5 -64t-63.5 -26t-63.5 26t-26.5 64q0 37 26.5 63t63.5 26t63.5 -26zM688 1600v-1324
h-90v1324h90z" />
    <glyph glyph-name="uni203E" unicode="&#x203e;" horiz-adv-x="1050" 
d="M25 1810h1000v-90h-1000v90z" />
    <glyph glyph-name="fraction" unicode="&#x2044;" horiz-adv-x="91" 
d="M591 1430l-917 -1311l-74 51l918 1311z" />
    <glyph glyph-name="fraction" unicode="&#x2215;" horiz-adv-x="91" 
d="M591 1430l-917 -1311l-74 51l918 1311z" />
    <glyph glyph-name="uni207F" unicode="&#x207f;" horiz-adv-x="1071" 
d="M240 1322v-763h-90v982h90v-63q123 122 286 122q174 0 283 -109t112 -275v-657h-90v649q0 125 -90.5 213.5t-214.5 88.5t-214 -87q-49 -49 -72 -101z" />
    <glyph glyph-name="franc" unicode="&#x20a3;" horiz-adv-x="1012" 
d="M212 468v1132h700v-90h-610v-665h610v-90h-610v-287h288v-90h-288v-378h-90v378h-162v90h162z" />
    <glyph glyph-name="lira" unicode="&#x20a4;" horiz-adv-x="1130" 
d="M299 755q-17 40 -37 79q-111 180 -125 343q-2 19 -2 38q0 139 92 249q103 123 266 138q19 1 38 1q139 0 250 -92q124 -105 139 -267q3 -23 3 -44q0 -63 -22 -114l-86 29q15 43 15 95q0 14 -1 28q-12 123 -107 203q-84 70 -190 70q-14 0 -28 -1q-124 -11 -204 -106
q-70 -84 -70 -189q0 -15 1 -30q10 -113 78 -256q53 -85 87 -174h232v-90h-202q16 -59 23 -120h179v-90h-173q-6 -198 -170 -392q125 45 246 45q72 0 143 -16q99 -23 188 -23q80 0 151 18l17 -89q-81 -20 -168 -20q-89 0 -183 22q-98 21 -173 21q-68 0 -117 -17
q-104 -38 -202 -87l-87 103q124 110 156 149q106 126 108 286h-236v90h229q-8 60 -26 120h-203v90h171z" />
    <glyph glyph-name="peseta" unicode="&#x20a7;" horiz-adv-x="1855" 
d="M231 1509v-863h245q160 0 274 126.5t114 305.5t-114 305t-274 126h-245zM917 892q-34 -101 -109 -184q-138 -153 -332 -153h-245v-555h-81v1600h378q164 -25 280 -153q138 -153 138 -369q0 -50 -7 -96h84v418h90v-418h248q53 32 119 32q98 0 162 -64q62 -63 62 -143v-5
l-78 -31q-10 76 -47.5 114t-98.5 38q-60 0 -103 -42.5t-43 -103.5q0 -60 43 -103q25 -25 106 -76q128 -70 182 -124q85 -86 85 -205q0 -122 -85 -207.5t-206 -85.5t-206 85.5t-85 187.5l89 23q0 -88 59.5 -147t142.5 -59t142.5 59t59.5 144q0 83 -59 142q-32 32 -129 94
q-115 62 -159 106q-69 69 -69 166q0 63 29 115h-161v-892h-90v892h-106z" />
    <glyph glyph-name="Euro" unicode="&#x20ac;" horiz-adv-x="1450" 
d="M268 885v166q0 227 161 388t388 161q228 0 388 -161l-67 -67q-133 132 -321 132t-321 -132.5t-133 -320.5v-166h657l-18 -90h-639v-120h615l-18 -90h-597v-64q0 -188 133 -320.5t321 -132.5t321 133q82 82 114 185h98q-34 -142 -145 -253q-160 -161 -388 -161
q-227 0 -388 161t-161 388v64h-168l18 90h150v120h-126l18 90h108z" />
    <glyph glyph-name="afii61248" unicode="&#x2105;" horiz-adv-x="1977" 
d="M767 974l71.25 -25.5q-19.5 -27 -44.25 -51.75q-120.75 -120.75 -291.75 -120.75q-170.25 0 -291 120.75t-120.75 291.75q0 170.25 120.75 291t291 120.75q171 0 291.75 -120.75q24.75 -24.75 44.25 -51l-71.25 -26.25q-11.25 13.5 -24 27q-99.75 99 -240.75 99
q-140.25 0 -240 -99.375t-99.75 -240.375t99.75 -240.75t240 -99.75q141 0 240.75 99.75q12.75 12.75 24 26.25zM1496 1430l-917 -1311l-74 51l918 1311zM1475.25 803.25q171 0 291.375 -120.75t120.375 -291.75q0 -170.25 -120.375 -291t-291.375 -120.75
q-170.25 0 -291 120.75t-120.75 291q0 171 120.75 291.75t291 120.75zM1234.5 631.5q-99.75 -99.75 -99.75 -240.75t99.75 -240.375t240.75 -99.375t240.75 99.375t99.75 240.375t-99.75 240.75t-240.75 99.75t-240.75 -99.75z" />
    <glyph glyph-name="afii61352" unicode="&#x2116;" horiz-adv-x="2054" 
d="M1894 1543h35v-632h-710v35h675v597zM1502 1131q101 5 155 58q58 57 58 140q0 82 -58 140q-54 53 -155 58q-101 -5 -155 -58q-58 -58 -58 -140q0 -83 58 -140q54 -53 155 -58zM1487 1054q-115 0 -195 80.5t-80 194.5t80 194.5t195 80.5h29q115 0 195 -80.5t80 -194.5
t-80 -194.5t-195 -80.5h-29zM125 1600h99l822 -1423v1423h90v-1600h-90l-831 1437v-1437h-90v1600z" />
    <glyph glyph-name="trademark" unicode="&#x2122;" horiz-adv-x="1251" 
d="M497 1556h-158v-604h-57v604h-182v52h453l267 -409l266 409h65l-9 -13v-643h-56v556l-266 -410l-267 410v-556h-56v604z" />
    <glyph glyph-name="Omega" unicode="&#x2126;" horiz-adv-x="1593" 
d="M804 1600q316 0 507.5 -223t191.5 -602q0 -278 -152.5 -467t-274.5 -219h325v-89h-535v89q216 50 381.5 225t165.5 461q0 342 -167 545.5t-447 203.5h-5q-280 0 -447 -203.5t-167 -545.5q0 -286 165.5 -461t381.5 -225v-89h-535v89h325q-122 30 -274.5 219t-152.5 467
q0 379 191.5 602t507.5 223h15z" />
    <glyph glyph-name="arrowleft" unicode="&#x2190;" horiz-adv-x="1809" 
d="M284 963v-127h1411v-91h-1411v-127l-171 173z" />
    <glyph glyph-name="arrowup" unicode="&#x2191;" horiz-adv-x="1024" 
d="M684 1414h-128v-1411h-90v1411h-127l172 171z" />
    <glyph glyph-name="arrowright" unicode="&#x2192;" horiz-adv-x="1809" 
d="M1695 791l-171 -173v127h-1411v91h1411v127z" />
    <glyph glyph-name="arrowdown" unicode="&#x2193;" horiz-adv-x="1024" 
d="M511 3l-172 171h127v1411h90v-1411h128z" />
    <glyph glyph-name="arrowboth" unicode="&#x2194;" horiz-adv-x="1809" 
d="M1524 836v127l171 -172l-171 -173v127h-1240v-127l-171 173l171 172v-127h1240z" />
    <glyph glyph-name="arrowupdn" unicode="&#x2195;" horiz-adv-x="1809" 
d="M950 174h127l-172 -171l-173 171h128v1240h-128l173 171l172 -171h-127v-1240z" />
    <glyph glyph-name="arrowupdnbse" unicode="&#x21a8;" horiz-adv-x="1809" 
d="M951 174h127l-172 -171l-173 171h128v1240h-128l173 171l172 -171h-127v-1240zM733 1682h345v-90h-345v90zM733 0h345v-91h-345v91z" />
    <glyph glyph-name="partialdiff" unicode="&#x2202;" horiz-adv-x="990" 
d="M838 766q-547 -69 -681 -409q-14 -52 -14 -94q0 -176 241 -178q324 34 454 681zM840 848q8 98 8 180q0 438 -213 478q-42 7 -81 7q-197 0 -327 -189l-42 83q147 178 360 178q70 0 148 -19q241 -61 241 -512q0 -133 -22 -301q-115 -733 -531 -743q-324 0 -324 248
q0 50 14 111q127 400 769 479z" />
    <glyph glyph-name="Delta" unicode="&#x2206;" horiz-adv-x="1248" 
d="M34 1h-68l583 1599h109l590 -1600h-1214v1zM1119 90l-516 1397l-509 -1397h1025z" />
    <glyph glyph-name="product" unicode="&#x220f;" horiz-adv-x="1326" 
d="M197 1509v-1883h-91v1974h1113v-1974h-90v1883h-932z" />
    <glyph glyph-name="summation" unicode="&#x2211;" horiz-adv-x="1185" 
d="M1083 1600v-91h-890l418 -896l-418 -896h890v-91h-1026l453 987l-453 987h1026z" />
    <glyph glyph-name="minus" unicode="&#x2212;" horiz-adv-x="1050" 
d="M125 637h800v-90h-800v90z" />
    <glyph glyph-name="radical" unicode="&#x221a;" horiz-adv-x="1535" 
d="M867 294l572 1446h96l-703 -1819l-632 797l-98 -44l-45 57l296 167z" />
    <glyph glyph-name="infinity" unicode="&#x221e;" horiz-adv-x="1210" 
d="M1056 815q0 97 -68.5 166t-166.5 69q-97 0 -171 -67q-71 -66 -97 -195q26 -129 97 -194q74 -67 171 -67q98 0 166.5 69t68.5 219zM1038 546.5q-90 -89.5 -217 -89.5t-221 87q-65 61 -90 139q-13 -29 -65.5 -77.5t-143.5 -48.5t-155.5 63.5t-64.5 179.5q0 93 64.5 157.5
t155.5 64.5t143.5 -49.5t65.5 -78.5q25 78 90 139q94 87 221 87t217 -89.5t90 -215.5q0 -179 -90 -268.5zM151 790q0 -74 43.5 -118t106.5 -44q62 0 107 42.5t69 117.5q-24 76 -69 118.5t-107 42.5q-63 0 -106.5 -43.5t-43.5 -115.5z" />
    <glyph glyph-name="integral" unicode="&#x222b;" horiz-adv-x="562" 
d="M326 -79q-12 -284 -290 -284v83q189 0 200 198v1514q23 284 291 284l1 -72q-181 -6 -202 -209v-1514z" />
    <glyph glyph-name="approxequal" unicode="&#x2248;" horiz-adv-x="1277" 
d="M638 996q188 -109 273 -109q15 0 27 3q77 23 108 100q15 38 15 77l91 -14q-4 -48 -23 -97q-46 -111 -156 -148q-25 -8 -56 -8q-105 0 -278 99q-190 109 -274 109q-14 0 -26 -3q-77 -23 -108 -100q-15 -39 -16 -77l-90 14q2 48 22 97q46 111 157 148q25 8 55 8
q106 0 279 -99zM638 701q188 -109 273 -109q15 0 27 3q77 23 108 100q15 38 15 77l91 -14q-4 -48 -23 -97q-46 -111 -156 -148q-25 -8 -56 -8q-105 0 -278 99q-190 109 -274 109q-14 0 -26 -3q-77 -23 -108 -100q-15 -39 -16 -77l-90 14q2 48 22 97q46 111 157 148
q25 8 55 8q106 0 279 -99z" />
    <glyph glyph-name="notequal" unicode="&#x2260;" horiz-adv-x="1050" 
d="M126 797h800v-90h-800v90zM126 477h800v-90h-800v90zM836 992h103l-725 -800h-102z" />
    <glyph glyph-name="equivalence" unicode="&#x2261;" horiz-adv-x="1050" 
d="M125 637h800v-90h-800v90zM125 457h800v-90h-800v90zM125 817h800v-90h-800v90z" />
    <glyph glyph-name="lessequal" unicode="&#x2264;" horiz-adv-x="1349" 
d="M1249 145l-1149 418l1149 418v-96l-886 -322l886 -322v-96zM149 90h1100v-90h-1100v90z" />
    <glyph glyph-name="greaterequal" unicode="&#x2265;" horiz-adv-x="1349" 
d="M100 241l886 322l-886 322v96l1149 -418l-1149 -418v96zM100 90h1100v-90h-1100v90z" />
    <glyph glyph-name="integraltp" unicode="&#x2320;" horiz-adv-x="631" 
d="M315 -362h-89v1794q23 284 291 284l1 -72q-181 -6 -203 -209v-1797z" />
    <glyph glyph-name="integralbt" unicode="&#x2321;" horiz-adv-x="631" 
d="M316 1716h89v-1794q-23 -284 -292 -284v72q181 6 203 209v1797z" />
    <glyph glyph-name="uniEEC9" unicode="&#xeec9;" horiz-adv-x="978" 
d="M801.5 1304q26.5 -26 26.5 -63q0 -38 -26.5 -64t-63.5 -26t-63.5 26t-26.5 64q0 37 26.5 63t63.5 26t63.5 -26zM693 892h-413v-892h-90v892h-100v90h100v266q6 111 85 191q82 76 189 76q56 0 118 -21l-28 -80q-42 18 -81 18q-71 0 -134 -57q-56 -55 -59 -133v-260h503
v-982q0 -211 -211 -228v90q121 14 121 136v894z" />
    <glyph glyph-name="uniEECA" unicode="&#xeeca;" horiz-adv-x="1122" 
d="M673 892h-393v-892h-90v892h-100v90h100v266q6 111 85 191q82 76 189 76q56 0 118 -21l-28 -80q-42 18 -81 18q-71 0 -134 -57q-56 -55 -59 -133v-260h483v-179q28 40 65 77q119 119 244 125v-98q-85 -4 -176 -95q-128 -127 -133 -305v-507h-90v892z" />
    <glyph glyph-name="uniEECB" unicode="&#xeecb;" horiz-adv-x="943" 
d="M210 982h393v428q-70 22 -150 22q-121 0 -184 -57q-56 -55 -59 -133v-260zM120 982v266q6 111 85 191q82 76 239 76q146 0 249 -55v-478h200v-90h-200v-892h-90v892h-393v-892h-90v892h-100v90h100z" />
    <glyph glyph-name="uniEECD" unicode="&#xeecd;" horiz-adv-x="1528" 
d="M641 892h-361v-892h-90v892h-100v90h100v266q6 111 85 191q82 76 189 76q56 0 118 -21l-28 -80q-42 18 -81 18q-71 0 -134 -57q-56 -55 -59 -133v-260h420l326 -704l326 704h101l-427 -895v1l-222 -463h-88l265 556z" />
    <glyph glyph-name="uniEECE" unicode="&#xeece;" horiz-adv-x="1716" 
d="M280 892v-892h-90v892h-100v90h100v266q6 111 85 191q82 76 189 76q56 0 118 -21l-28 -80q-42 18 -81 18q-71 0 -134 -57q-56 -55 -59 -133v-260h433v266q6 111 85 191q82 76 189 76q56 0 118 -21l-28 -80q-42 18 -81 18q-71 0 -134 -57q-56 -55 -59 -133v-260h533v418
h90v-418h200v-90h-200v-892h-90v892h-533v-892h-90v892h-433z" />
    <glyph glyph-name="uniEECF" unicode="&#xeecf;" horiz-adv-x="2051" 
d="M280 892v-892h-90v892h-100v90h100v266q6 111 85 191q82 76 189 76q56 0 118 -21l-28 -80q-42 18 -81 18q-71 0 -134 -57q-56 -55 -59 -133v-260h433v266q6 111 85 191q82 76 189 76q56 0 118 -21l-28 -80q-42 18 -81 18q-71 0 -134 -57q-56 -55 -59 -133v-260h420
l326 -704l326 704h101l-427 -895v1l-222 -463h-88l265 556l-340 711h-361v-892h-90v892h-433z" />
    <glyph glyph-name="uniEED0" unicode="&#xeed0;" horiz-adv-x="2198" 
d="M280 892v-892h-90v892h-100v90h100v266q6 111 85 191q82 76 189 76q56 0 118 -21l-28 -80q-42 18 -81 18q-71 0 -134 -57q-56 -55 -59 -133v-260h533v418h90v-418h467l326 -704l326 704h101l-427 -895v1l-222 -463h-88l265 556l-340 711h-408v-892h-90v892h-533z" />
    <glyph glyph-name="uniEED9" unicode="&#xeed9;" horiz-adv-x="1269" 
d="M820 892h-440v-892h-90v892h-200v90h200v418h90v-418h530v-179q28 40 65 77q119 119 244 125v-98q-85 -4 -176 -95q-128 -127 -133 -305v-507h-90v892z" />
    <glyph glyph-name="uniEEDA" unicode="&#xeeda;" horiz-adv-x="1340" 
d="M380 892v-892h-90v892h-200v90h200v418h90v-418h580v418h90v-418h200v-90h-200v-892h-90v892h-580z" />
    <glyph glyph-name="uniEEDB" unicode="&#xeedb;" horiz-adv-x="1675" 
d="M788 892h-408v-892h-90v892h-200v90h200v418h90v-418h470v-6l323 -698l326 704h101l-427 -895v1l-222 -463h-88l265 556z" />
    <glyph glyph-name="uniEEDC" unicode="&#xeedc;" horiz-adv-x="1670" 
d="M380 892v-892h-90v892h-200v90h200v418h90v-418h1111l-515 -891h553v-91h-709l514 892h-954z" />
    <glyph glyph-name="uniF001" unicode="&#xf001;" horiz-adv-x="953" 
d="M280 0h-90v892h-100v90h100v266q6 111 85 191q82 76 189 76q56 0 118 -21l-28 -80q-42 18 -81 18q-71 0 -134 -57q-56 -55 -59 -133v-1242zM783 982v-982h-90v982h90zM801.5 1304q26.5 -26 26.5 -63q0 -38 -26.5 -64t-63.5 -26t-63.5 26t-26.5 64q0 37 26.5 63t63.5 26
t63.5 -26z" />
    <glyph glyph-name="uniF002" unicode="&#xf002;" horiz-adv-x="913" 
d="M673 1410q-70 22 -150 22q-121 0 -184 -57q-56 -55 -59 -133v-1242h-90v892h-100v90h100v266q6 111 85 191q82 76 239 76q146 0 249 -55v-1460h-90v1410z" />
    <glyph glyph-name="uniFB00" unicode="&#xfb00;" horiz-adv-x="1046" 
d="M280 892v-892h-90v892h-100v90h100v266q6 111 85 191q82 76 189 76q56 0 118 -21l-28 -80q-42 18 -81 18q-71 0 -134 -57q-56 -55 -59 -133v-260h433v266q6 111 85 191q82 76 189 76q56 0 118 -21l-28 -80q-42 18 -81 18q-71 0 -134 -57q-56 -55 -59 -133v-260h200v-90
h-200v-892h-90v892h-433z" />
    <glyph glyph-name="uniFB01" unicode="&#xfb01;" horiz-adv-x="953" 
d="M801.5 1304q26.5 -26 26.5 -63q0 -38 -26.5 -64t-63.5 -26t-63.5 26t-26.5 64q0 37 26.5 63t63.5 26t63.5 -26zM693 892h-413v-892h-90v892h-100v90h100v266q6 111 85 191q82 76 189 76q56 0 118 -21l-28 -80q-42 18 -81 18q-71 0 -134 -57q-56 -55 -59 -133v-260h503
v-982h-90v892z" />
    <glyph glyph-name="uniFB02" unicode="&#xfb02;" horiz-adv-x="913" 
d="M673 1410q-70 22 -150 22q-121 0 -184 -57q-56 -55 -59 -133v-260h200v-90h-200v-892h-90v892h-100v90h100v266q6 111 85 191q82 76 239 76q146 0 249 -55v-1460h-90v1410z" />
    <glyph glyph-name="uniFB03" unicode="&#xfb03;" horiz-adv-x="1476" 
d="M1324.5 1304q26.5 -26 26.5 -63q0 -38 -26.5 -64t-63.5 -26t-63.5 26t-26.5 64q0 37 26.5 63t63.5 26t63.5 -26zM280 892v-892h-90v892h-100v90h100v266q6 111 85 191q82 76 189 76q56 0 118 -21l-28 -80q-42 18 -81 18q-71 0 -134 -57q-56 -55 -59 -133v-260h433v266
q6 111 85 191q82 76 189 76q56 0 118 -21l-28 -80q-42 18 -81 18q-71 0 -134 -57q-56 -55 -59 -133v-260h503v-982h-90v892h-413v-892h-90v892h-433z" />
    <glyph glyph-name="uniFB04" unicode="&#xfb04;" horiz-adv-x="1436" 
d="M280 892v-892h-90v892h-100v90h100v266q6 111 85 191q82 76 189 76q56 0 118 -21l-28 -80q-42 18 -81 18q-71 0 -134 -57q-56 -55 -59 -133v-260h433v266q6 111 85 191q82 76 239 76q146 0 249 -55v-1460h-90v1410q-70 22 -150 22q-121 0 -184 -57q-56 -55 -59 -133v-260
h200v-90h-200v-892h-90v892h-433z" />
    <glyph glyph-name="uniFB05" unicode="&#xfb05;" horiz-adv-x="943" 
d="M603 892h-200v90h200v428q-70 22 -150 22q-121 0 -184 -57q-56 -55 -59 -133v-1242h-90v892h-100v90h100v266q6 111 85 191q82 76 239 76q146 0 249 -55v-478h200v-90h-200v-892h-90v892z" />
    </font>
</defs>
</svg>
