<?xml version="1.0" standalone="no"?>
<!DOCTYPE svg PUBLIC "-//W3C//DTD SVG 1.1//EN" "http://www.w3.org/Graphics/SVG/1.1/DTD/svg11.dtd" >
<svg>
<metadata>
Created by FontForge 20110222 at Wed Sep 17 03:52:25 2014
 By Orthosie Webhosting
Copyright (c) 2012, Sorkin Type Co (www.sorkintype.com)with Reserved Font Name "Fjalla" and Fjalla "One"
</metadata>
<defs>
<font id="FjallaOneRegular" horiz-adv-x="0" >
  <font-face 
    font-family="FjallaOneRegular"
    font-weight="400"
    font-stretch="normal"
    units-per-em="2048"
    panose-1="2 0 5 6 4 0 0 2 0 4"
    ascent="1638"
    descent="-410"
    x-height="1377"
    cap-height="1708"
    bbox="-146 -458 2519 2066"
    underline-thickness="102"
    underline-position="-103"
    unicode-range="U+0009-FB02"
  />
<missing-glyph horiz-adv-x="1326" 
d="M105 0v1943h1116v-1943h-1116zM296 399h224l87 203l56 158l55 -158l87 -203h224l-265 545l265 537h-236l-85 -205l-47 -138l-45 138l-84 205h-236l264 -536z" />
    <glyph glyph-name="f_f" unicode="ff" horiz-adv-x="1239" 
d="M164 0v1185h-119v192h119v89q0 108 22 181.5t65 111t93 52.5t119 15q100 0 168 -34v-178q-42 11 -94 11q-55 0 -89.5 -37.5t-34.5 -121.5v-89h191v-192h-191v-1185h-249zM787 0v1197h-119v180h119v99q0 108 22 181.5t65 111t93 52.5t119 15q100 0 168 -34v-178
q-42 11 -94 11q-55 0 -89.5 -37.5t-34.5 -121.5v-99h191v-180h-191v-1197h-249z" />
    <glyph glyph-name="f_i" unicode="fi" horiz-adv-x="1144" 
d="M164 0v1185h-119v192h119v99q0 87 15 152t40 104t63 63t78.5 32.5t92.5 8.5q94 0 158 -34v-178q-38 11 -84 11q-51 0 -82.5 -37.5t-31.5 -121.5v-99h191v-192h-191v-1185h-249zM888 1574q-71 0 -111 43t-40 122q0 86 38.5 123t113.5 37q153 0 153 -160q0 -78 -40 -121.5
t-114 -43.5zM757 0v1377h253v-1377h-253z" />
    <glyph glyph-name="f_l" unicode="fl" horiz-adv-x="1147" 
d="M164 0v1185h-119v192h119v99q0 87 15 152t40 104t63 63t78.5 32.5t92.5 8.5q94 0 158 -34v-178q-38 11 -84 11q-51 0 -82.5 -37.5t-31.5 -121.5v-99h191v-192h-191v-1185h-249zM760 0v1819h253v-1819h-253z" />
    <glyph glyph-name=".notdef" horiz-adv-x="1326" 
d="M105 0v1943h1116v-1943h-1116zM296 399h224l87 203l56 158l55 -158l87 -203h224l-265 545l265 537h-236l-85 -205l-47 -138l-45 138l-84 205h-236l264 -536z" />
    <glyph glyph-name=".null" 
 />
    <glyph glyph-name=".null" 
 />
    <glyph glyph-name="nonmarkingreturn" horiz-adv-x="682" 
 />
    <glyph glyph-name="HT" unicode="&#x9;" 
 />
    <glyph glyph-name="LF" unicode="&#xa;" 
 />
    <glyph glyph-name="CR" unicode="&#xd;" 
 />
    <glyph glyph-name="DLE" 
 />
    <glyph glyph-name="DC1" 
 />
    <glyph glyph-name="DC2" 
 />
    <glyph glyph-name="DC3" 
 />
    <glyph glyph-name="DC4" 
 />
    <glyph glyph-name="RS" 
 />
    <glyph glyph-name="US" 
 />
    <glyph glyph-name="space" unicode=" " horiz-adv-x="438" 
 />
    <glyph glyph-name="exclam" unicode="!" horiz-adv-x="690" 
d="M243 555l-35 1258h273l-31 -1258h-207zM191 177q0 196 156 196q76 0 116.5 -49.5t40.5 -146.5q0 -91 -42 -141t-116 -50q-72 0 -113.5 49.5t-41.5 141.5z" />
    <glyph glyph-name="quotedbl" unicode="&#x22;" horiz-adv-x="1123" 
d="M231 1180l-25 696h249l-21 -696h-203zM693 1180l-25 696h249l-21 -696h-203z" />
    <glyph glyph-name="numbersign" unicode="#" horiz-adv-x="1108" 
d="M209 0l28 385h-141v182h154l19 242h-133v182h146l28 378h179l-28 -378h238l28 378h179l-28 -378h134v-182h-147l-19 -242h126v-182h-139l-28 -385h-179l28 385h-238l-28 -385h-179zM429 567h239l18 242h-239z" />
    <glyph glyph-name="dollar" unicode="$" horiz-adv-x="1006" 
d="M97 346q0 93 26 202h201v-82q0 -285 171 -285q147 0 147 147q0 127 -120 280l-263 339q-76 97 -113.5 189t-37.5 200q0 152 84 254.5t232 125.5v228h186v-230q79 -14 137 -49.5t90.5 -85.5t47.5 -104t15 -114q0 -61 -27 -204h-200v82q0 135 -43.5 208t-123.5 73
q-71 0 -109.5 -40t-38.5 -109q0 -54 21.5 -100.5t63.5 -102.5l295 -382q88 -114 129 -210t41 -208q0 -147 -79.5 -245t-217.5 -127v-251h-186v243q-91 9 -157 42.5t-102 84t-52.5 107.5t-16.5 124z" />
    <glyph glyph-name="percent" unicode="%" horiz-adv-x="1885" 
d="M479 786q-50 0 -92 9t-86.5 37.5t-75 74.5t-50 126.5t-19.5 187.5v107q0 105 20.5 183.5t52 122.5t77 71t86 35t88.5 8q38 0 71.5 -6t72 -21t68 -45t55 -74.5t39 -114.5t13.5 -159v-107q0 -105 -21 -185.5t-52.5 -126.5t-76 -75t-85 -38.5t-85.5 -9.5zM625 0l460 1727
h181l-459 -1727h-182zM481 945q61 0 87 53.5t26 170.5v194q0 118 -26 172t-87 54q-64 0 -91.5 -54t-27.5 -172v-194q0 -117 27.5 -170.5t91.5 -53.5zM1087 420v107q0 105 20.5 183.5t52 122.5t76.5 71t85.5 35t88.5 8q38 0 71.5 -6t72 -21t68 -45t55 -74.5t39 -114.5
t13.5 -159v-107q0 -105 -21 -185.5t-52.5 -126.5t-76 -75t-85 -38.5t-85.5 -9.5q-50 0 -92 9t-86 37.5t-74.5 74.5t-50 126.5t-19.5 187.5zM1292 368q0 -117 27.5 -170.5t91.5 -53.5q61 0 87 53.5t26 170.5v194q0 118 -26 172t-87 54q-64 0 -91.5 -54t-27.5 -172v-194z" />
    <glyph glyph-name="ampersand" unicode="&#x26;" horiz-adv-x="1211" 
d="M55 410q0 33 5.5 67t12.5 62t21.5 61t25 55.5t32 54t32.5 47.5t35.5 46t32.5 40t33 38t28 32l27 29l-34 61q-133 239 -133 429q0 170 109 274t269 104q78 0 140 -20.5t99 -52.5t61.5 -74t34 -81.5t9.5 -79.5q0 -51 -9.5 -100.5t-30 -95.5t-39 -81.5t-50.5 -77
t-49.5 -63.5t-50.5 -59t-40 -45l-22 -25l258 -469q36 114 36 238q0 69 -4 117h209q10 -58 10 -117q0 -233 -139 -441l156 -282h-268l-56 100q-152 -117 -315 -117q-196 0 -316 113t-120 313zM511 1125l17 18q27 31 37 43t37 49.5t39 65.5t24 71t12 86q0 72 -36.5 110
t-89.5 38q-56 0 -98.5 -41.5t-42.5 -132.5q0 -66 22.5 -133.5t78.5 -173.5zM312 445q0 -68 23.5 -126t78.5 -98.5t132 -40.5q96 0 174 76l-284 512q-124 -155 -124 -323z" />
    <glyph glyph-name="quotesingle" unicode="'" horiz-adv-x="661" 
d="M231 1180l-25 696h249l-21 -696h-203z" />
    <glyph glyph-name="parenleft" unicode="(" horiz-adv-x="776" 
d="M654 -83v-174q-39 0 -69 2.5t-74 13.5t-78 30t-75.5 56t-72 88t-61 128.5t-50 175t-31.5 231t-12 292.5v197q0 156 12 287.5t31.5 227.5t50 173t61 127.5t71.5 87.5t75.5 56.5t78.5 30.5t74 13.5t69 2.5v-173q-144 0 -218.5 -199.5t-74.5 -587.5v-291q0 -402 76 -598.5
t217 -196.5z" />
    <glyph glyph-name="parenright" unicode=")" horiz-adv-x="776" 
d="M121 -83q142 0 218 196.5t76 598.5v291q0 388 -74.5 587.5t-219.5 199.5v173q39 0 69 -2.5t74 -13.5t78.5 -30.5t75.5 -56.5t72 -87.5t61 -127.5t49.5 -173t31.5 -227.5t12 -287.5v-197q0 -159 -12 -292.5t-31.5 -231t-50 -175t-61 -128.5t-71.5 -88t-75 -56t-78.5 -30
t-74.5 -13.5t-69 -2.5v174z" />
    <glyph glyph-name="asterisk" unicode="*" horiz-adv-x="1048" 
d="M366 844l-199 149l237 246l-325 61l71 239l299 -162l-46 350h246l-54 -350l301 157l73 -239l-331 -56l235 -253l-200 -146l-152 313z" />
    <glyph glyph-name="plus" unicode="+" horiz-adv-x="835" 
d="M317 368v323h-272v196h272v313h199v-313h274v-196h-274v-323h-199z" />
    <glyph glyph-name="comma" unicode="," horiz-adv-x="512" 
d="M55 -327l100 677h257l-146 -677h-211z" />
    <glyph glyph-name="hyphen" unicode="-" horiz-adv-x="997" 
d="M126 685v203h745v-203h-745z" />
    <glyph glyph-name="period" unicode="." horiz-adv-x="501" 
d="M91 179q0 198 156 198q75 0 116 -50t41 -148q0 -91 -42 -142t-116 -51q-72 0 -113.5 50t-41.5 143z" />
    <glyph glyph-name="slash" unicode="/" horiz-adv-x="552" 
d="M10 -326l313 2210h219l-313 -2210h-219z" />
    <glyph glyph-name="zero" unicode="0" horiz-adv-x="1047" 
d="M105 498v722q0 93 15.5 169t40.5 127.5t61 90t72.5 60.5t80 35t78.5 17t73 4q416 0 416 -503v-722q0 -93 -15.5 -169.5t-41 -128.5t-61.5 -92t-72.5 -62.5t-79.5 -37t-77 -19t-69 -4.5q-39 0 -75 4.5t-79 19t-80 37t-72.5 62.5t-60 92t-39.5 128.5t-15 169.5zM370 389
q0 -105 38.5 -153.5t117.5 -48.5q77 0 115 48.5t38 153.5v925q0 110 -38 162t-115 52q-79 0 -117.5 -52t-38.5 -162v-925z" />
    <glyph glyph-name="one" unicode="1" horiz-adv-x="830" 
d="M152 0v195h198v1165l-212 -187l-112 131l388 404h193l-1 -2l1 1v-1512h197v-195h-652z" />
    <glyph glyph-name="two" unicode="2" horiz-adv-x="992" 
d="M102 0v152l377 726q97 186 132.5 292.5t35.5 180.5q0 102 -35.5 143t-111.5 41q-167 0 -167 -281v-97h-200q-27 143 -27 204q0 67 23.5 130t69 115.5t123.5 84.5t178 32q420 0 420 -387q0 -102 -40 -207.5t-144 -284.5l-337 -640h499v-204h-796z" />
    <glyph glyph-name="three" unicode="3" horiz-adv-x="1035" 
d="M100 348q0 94 25 201h202v-87q0 -282 175 -282q161 0 161 198v189q0 113 -41.5 169t-137.5 56h-109v185h109q69 0 111.5 47.5t42.5 147.5v179q0 184 -147 184q-80 0 -124 -73t-44 -208v-97h-200q-27 127 -27 204q0 67 24.5 130t71.5 115.5t124.5 84.5t174.5 32
q213 0 312 -96t99 -282v-105q0 -133 -60 -218.5t-150 -128.5v-8q110 -37 172.5 -122t62.5 -242v-113q0 -114 -33.5 -198t-93.5 -132t-134 -70.5t-164 -22.5q-195 0 -298.5 94.5t-103.5 268.5z" />
    <glyph glyph-name="four" unicode="4" horiz-adv-x="1100" 
d="M81 306v136l498 1266h309v-1199h158v-203h-158v-306h-241v306h-566zM345 509h302v252l24 644h-30z" />
    <glyph glyph-name="five" unicode="5" horiz-adv-x="1030" 
d="M126 351q0 91 25 198h202v-140q0 -121 36 -175t116 -54q79 0 114.5 57.5t35.5 171.5v330q0 118 -36.5 161t-104.5 43q-99 0 -162 -107h-191v872h734v-229h-518v-422q42 47 105.5 74.5t132.5 27.5q157 0 232 -105.5t75 -316.5v-290q0 -102 -22.5 -182.5t-60 -132
t-90 -85.5t-110 -48t-122.5 -14q-188 0 -289.5 97.5t-101.5 268.5z" />
    <glyph glyph-name="six" unicode="6" horiz-adv-x="1050" 
d="M108 507v702q0 98 16.5 177t42.5 132t64.5 92t75.5 60t83.5 33.5t81.5 16t75 3.5q100 0 176 -26t120 -72t66 -103t22 -124q0 -78 -27 -161h-197v52q0 102 -17.5 158t-50.5 76t-92 20q-177 0 -177 -246v-329q92 99 242 99q50 0 94.5 -11t90 -40.5t77.5 -75.5t52.5 -121.5
t20.5 -173.5v-166q0 -262 -105 -378t-300 -116q-217 0 -325.5 122.5t-108.5 399.5zM370 410q0 -118 41 -174t128 -56q149 0 149 220v254q0 118 -39.5 168.5t-113.5 50.5q-96 0 -165 -93v-370z" />
    <glyph glyph-name="seven" unicode="7" horiz-adv-x="848" 
d="M70 0l473 1480h-502v229h780v-137l-470 -1572h-281z" />
    <glyph glyph-name="eight" unicode="8" horiz-adv-x="1042" 
d="M87 414v105q0 260 212 365v8q-188 99 -188 327v120q0 96 29 168t71 112t101 64.5t108 32t102 7.5q54 0 103 -7.5t108 -32t101 -64t71 -111.5t29 -168v-120q0 -228 -188 -327v-8q212 -104 212 -365v-105q0 -102 -26 -179.5t-67.5 -124t-100.5 -76t-117.5 -40t-125.5 -10.5
t-125 10.5t-116.5 39.5t-99.5 75.5t-67 124t-26 179.5zM510 976h24q140 0 140 202v141q0 216 -152 216q-78 0 -114 -54.5t-36 -163.5v-140q0 -108 35.5 -154.5t102.5 -46.5zM350 393q0 -213 171 -213q174 0 174 214v188q0 209 -161 209h-25q-75 0 -117 -52t-42 -158v-188z
" />
    <glyph glyph-name="nine" unicode="9" horiz-adv-x="1039" 
d="M924 1211v-712q0 -98 -16 -177t-41.5 -132t-63 -92t-74 -60t-82 -33.5t-79.5 -16t-73 -3.5q-103 0 -180.5 26t-123 72t-68 103t-22.5 124q0 78 27 161h197v-37q0 -102 19 -158t54 -76t97 -20q167 0 167 246v314q-92 -99 -239 -99q-50 0 -95 11t-90.5 40.5t-78.5 75.5
t-53.5 121.5t-20.5 173.5v166q0 262 105 378t300 116q108 0 186 -26.5t135 -86t85 -159t28 -240.5zM662 1326q0 115 -40 162.5t-129 47.5q-149 0 -149 -220v-262q0 -118 39.5 -168.5t113.5 -50.5q96 0 165 93v398z" />
    <glyph glyph-name="colon" unicode=":" horiz-adv-x="501" 
d="M91 1151q0 198 156 198q75 0 116 -50t41 -148q0 -91 -42 -142t-116 -51q-72 0 -113.5 50t-41.5 143zM91 179q0 198 156 198q75 0 116 -50t41 -148q0 -91 -42 -142t-116 -51q-72 0 -113.5 50t-41.5 143z" />
    <glyph glyph-name="semicolon" unicode=";" horiz-adv-x="501" 
d="M91 1151q0 198 156 198q75 0 116 -50t41 -148q0 -91 -42 -142t-116 -51q-72 0 -113.5 50t-41.5 143zM55 -327l100 677h257l-146 -677h-211z" />
    <glyph glyph-name="less" unicode="&#x3c;" horiz-adv-x="775" 
d="M45 715v147l644 400v-235l-416 -235v-8l416 -236v-234z" />
    <glyph glyph-name="equal" unicode="=" horiz-adv-x="916" 
d="M86 895v195h744v-195h-744zM86 488v195h744v-195h-744z" />
    <glyph glyph-name="greater" unicode="&#x3e;" horiz-adv-x="775" 
d="M679 862v-147l-644 -401v234l416 236v8l-416 235v235z" />
    <glyph glyph-name="question" unicode="?" horiz-adv-x="1026" 
d="M391 557l1 203q0 84 11.5 130t53.5 113l118 186q82 132 82 250q0 83 -42.5 133.5t-114.5 50.5q-157 0 -157 -280v-82h-204q-27 143 -27 204q0 161 100 261.5t298 100.5q202 0 307.5 -103.5t105.5 -284.5q0 -96 -35.5 -183.5t-115.5 -195.5l-80 -108q-54 -74 -67 -117.5
t-13 -133.5v-144h-221zM360 177q0 196 156 196q76 0 116.5 -49.5t40.5 -146.5q0 -91 -42 -141t-116 -50q-72 0 -113.5 49.5t-41.5 141.5z" />
    <glyph glyph-name="at" unicode="@" horiz-adv-x="1649" 
d="M90 513v432q0 151 24 277t64.5 215t99 157.5t121.5 110.5t138 68.5t143.5 36.5t142.5 10q78 0 146 -8t144.5 -32t139 -62.5t121 -103.5t98 -151.5t63.5 -210.5t24 -275v-212q0 -99 -5.5 -178.5t-18.5 -155.5t-36.5 -131.5t-57.5 -98.5t-83.5 -64.5t-112.5 -21.5
q-103 0 -164 47t-89 146q-34 -92 -94 -142t-134 -50q-28 0 -50 2.5t-54 13t-56.5 28.5t-51 54t-43.5 85t-28.5 124.5t-11.5 170.5v243q0 118 20 206t48.5 135.5t69 76t73 36.5t68.5 8q126 0 200 -124l19 109h196v-834q0 -151 91 -151q25 0 42.5 14.5t33 54t23.5 122t8 207.5
v280q0 103 -12 190.5t-31.5 151t-50 115t-61.5 85t-72.5 58t-77 37.5t-80.5 20.5t-77.5 9.5t-73.5 2q-52 0 -96.5 -5t-101.5 -23t-102.5 -47.5t-91.5 -82.5t-76.5 -125t-50 -179t-19.5 -239v-471q0 -106 12.5 -195.5t33.5 -155t54 -118.5t67 -88.5t79.5 -61t85 -39.5
t90.5 -22.5t89 -10.5t86 -2q65 0 142.5 11.5t127.5 31.5v-160q-39 -27 -136.5 -47t-190.5 -20q-63 0 -122 7.5t-135.5 31.5t-141 63.5t-128.5 110.5t-109 164t-73 231.5t-28 307.5zM821 312q63 0 102 83v622q-37 89 -101 89q-24 0 -42.5 -9.5t-35.5 -34t-26 -74.5t-9 -124
v-318q0 -94 15 -147.5t38 -70t59 -16.5z" />
    <glyph glyph-name="A" unicode="A" horiz-adv-x="967" 
d="M19 0l315 1708h298l316 -1708h-262l-47 306h-312l-45 -306h-263zM357 501h252l-120 851h-11z" />
    <glyph glyph-name="B" unicode="B" horiz-adv-x="1047" 
d="M146 0v1708h262q58 0 103.5 -2.5t103 -12t101 -25t87.5 -45t72.5 -69t46.5 -99.5t18 -134v-83q0 -130 -68 -222t-160 -114v-8q125 -23 190.5 -119.5t65.5 -250.5v-87q0 -91 -20 -161.5t-58.5 -117.5t-86.5 -79t-113.5 -48.5t-129 -23.5t-142.5 -7h-272zM400 977h50
q232 0 232 223v70q0 124 -54 186.5t-178 62.5h-50v-542zM400 180h74q108 0 169.5 58t61.5 174v133q0 125 -53.5 187t-177.5 62h-74v-614z" />
    <glyph glyph-name="C" unicode="C" horiz-adv-x="936" 
d="M514 -15q-39 0 -74 4.5t-78.5 19.5t-79 39t-71 68t-59 102.5t-38.5 145t-15 192.5v605q0 107 15 193t39.5 143.5t60 100.5t71 66.5t79 37t77 17.5t72.5 4q98 0 169.5 -28t111.5 -79.5t58 -114t18 -140.5q0 -95 -22 -204h-210v87q0 281 -122 281q-74 0 -109.5 -64.5
t-35.5 -222.5v-780q0 -157 31.5 -217t111.5 -60q54 0 90.5 50.5t36.5 147.5v167h237v-158q0 -401 -364 -403z" />
    <glyph glyph-name="D" unicode="D" horiz-adv-x="1061" 
d="M146 0v1708h269q67 0 109.5 -2t108 -14.5t107.5 -35t91.5 -67t77.5 -107.5t47.5 -160t19.5 -220v-496q0 -123 -19.5 -220t-47.5 -160t-77.5 -107.5t-91.5 -67t-107.5 -35t-107.5 -14.5t-110 -2h-269zM405 181h66q58 0 96.5 11.5t66.5 37.5t43 74.5t21.5 114.5t6.5 166
v530q0 100 -6.5 166t-21.5 114.5t-43 74.5t-66.5 37.5t-96.5 11.5h-66v-1338z" />
    <glyph glyph-name="E" unicode="E" horiz-adv-x="830" 
d="M146 0v1708h633v-204h-374v-511h289v-204h-289v-585h384v-204h-643z" />
    <glyph glyph-name="F" unicode="F" horiz-adv-x="826" 
d="M146 0v1708h653v-204h-394v-511h309v-204h-309v-789h-259z" />
    <glyph glyph-name="G" unicode="G" horiz-adv-x="1047" 
d="M491 -16q-44 0 -87 9.5t-99 45t-97 94t-70 168t-29 255.5v605q0 107 16 193t41.5 143.5t64 100.5t75.5 66.5t83.5 37t81.5 17.5t76 4q101 0 175 -28t117 -79t63 -114.5t20 -140.5t-24 -204h-207v81q0 281 -151 281q-84 0 -122 -63.5t-38 -223.5v-774q0 -155 37 -216
t121 -61q82 0 123 80t41 211v223h-133v170h385v-865h-172l-28 162q-48 -94 -111.5 -136t-151.5 -42z" />
    <glyph glyph-name="H" unicode="H" horiz-adv-x="1119" 
d="M146 0v1708h259v-715h307v715h259v-1708h-259v789h-307v-789h-259z" />
    <glyph glyph-name="I" unicode="I" horiz-adv-x="551" 
d="M146 0v1708h259v-1708h-259z" />
    <glyph glyph-name="J" unicode="J" horiz-adv-x="850" 
d="M351 -16q-93 0 -161 29.5t-105.5 83t-55 119t-17.5 146.5q0 124 28 257h207l-3 -208q0 -130 23.5 -180.5t80.5 -50.5q50 0 75 44t25 154l3 1330h259v-1294q0 -102 -20 -179.5t-53 -124.5t-81 -76t-97 -39.5t-108 -10.5z" />
    <glyph glyph-name="K" unicode="K" horiz-adv-x="1005" 
d="M146 0v1708h259v-746h8l296 746h258l-330 -801l367 -907h-277l-314 813h-8v-813h-259z" />
    <glyph glyph-name="L" unicode="L" horiz-adv-x="776" 
d="M146 0v1708h259v-1504h353v-204h-612z" />
    <glyph glyph-name="M" unicode="M" horiz-adv-x="1442" 
d="M146 0v1708h338l164 -661q24 -99 70 -397h8q46 298 70 397l169 661h331v-1708h-242v565q0 475 27 770h-19l-258 -1115h-164l-260 1115h-19q27 -295 27 -770v-565h-242z" />
    <glyph glyph-name="N" unicode="N" horiz-adv-x="1127" 
d="M146 0v1708h210l414 -1143h6q-1 11 -6 66.5t-7.5 89.5t-6.5 94t-5.5 127.5t-1.5 142.5v623h232v-1708h-212l-412 1113h-8q0 -4 7.5 -92.5t10 -134t6 -154.5t3.5 -230v-502h-230z" />
    <glyph glyph-name="O" unicode="O" horiz-adv-x="1044" 
d="M524 -15q-40 0 -76 4.5t-80.5 19.5t-81 39t-72.5 68t-60.5 102.5t-39.5 145t-15 192.5v605q0 107 15.5 193t40.5 143.5t61.5 100.5t72.5 66.5t81 37t79.5 17.5t74.5 4q39 0 72 -3.5t78 -17t80.5 -36t72.5 -65t62 -100t40.5 -145t15.5 -195.5v-605q0 -105 -16 -191
t-41.5 -144t-62 -102t-73 -69t-80 -40t-78 -20t-70.5 -5zM524 180q79 0 115 60.5t36 214.5v777q0 160 -36 223.5t-115 63.5q-81 0 -117.5 -63.5t-36.5 -223.5v-777q0 -154 36 -214.5t118 -60.5z" />
    <glyph glyph-name="P" unicode="P" horiz-adv-x="982" 
d="M146 0v1708h259q52 0 92 -2.5t98 -14.5t101 -32.5t90 -60.5t77 -94t49.5 -137.5t19.5 -187.5v-60q0 -114 -18 -205.5t-46.5 -153t-71 -107t-85 -70.5t-95.5 -40t-95 -19t-91 -4h-25v-520h-259zM405 710h13q139 0 193.5 82.5t54.5 278.5v154q0 158 -53 226t-195 68h-13
v-809z" />
    <glyph glyph-name="Q" unicode="Q" horiz-adv-x="1064" 
d="M429 -5q-320 63 -320 561v605q0 107 15.5 193t40.5 143.5t61.5 100.5t72.5 66.5t81 37t79.5 17.5t74.5 4q39 0 72 -3.5t78 -17t80.5 -36t72.5 -65t62 -100t40.5 -145t15.5 -195.5v-605q0 -114 -18.5 -206t-48 -151t-71.5 -102t-82.5 -64.5t-87.5 -33.5v-15
q0 -92 41.5 -122.5t137.5 -30.5q38 0 54 1v-140q-85 -38 -183 -38q-32 0 -60.5 3.5t-69 20t-69 43.5t-49 80.5t-20.5 126.5v67zM534 180q79 0 115 60.5t36 214.5v777q0 160 -36 223.5t-115 63.5q-81 0 -117.5 -63.5t-36.5 -223.5v-777q0 -154 36 -214.5t118 -60.5z" />
    <glyph glyph-name="R" unicode="R" horiz-adv-x="1048" 
d="M146 0v1708h281q51 0 90.5 -2.5t96 -13.5t99 -30t88.5 -55.5t75.5 -86.5t49 -127t19.5 -173v-43q0 -383 -221 -494l274 -683h-274l-227 639h-97v-639h-254zM400 826h39q137 0 191.5 66.5t54.5 237.5v135q0 136 -54 195t-192 59h-39v-693z" />
    <glyph glyph-name="S" unicode="S" horiz-adv-x="956" 
d="M80 346q0 93 26 202h201v-83q0 -144 38.5 -214.5t129.5 -70.5q74 0 113 41t39 118q0 80 -24.5 140.5t-95.5 150.5l-270 321q-150 193 -150 385q0 174 105 280.5t288 106.5q108 0 187.5 -31.5t122 -85.5t62 -114.5t19.5 -130.5q0 -21 -1.5 -40.5t-5 -43t-5.5 -36t-8 -43.5
t-8 -41h-200v81q0 281 -166 281q-71 0 -108 -40t-37 -109q0 -67 19 -112t62 -102l301 -364q86 -112 128 -210t42 -204q0 -182 -110 -288t-297 -106q-90 0 -160 20.5t-114 54.5t-72 81.5t-39.5 97.5t-11.5 108z" />
    <glyph glyph-name="T" unicode="T" horiz-adv-x="866" 
d="M304 0v1504h-275v204h808v-204h-274v-1504h-259z" />
    <glyph glyph-name="U" unicode="U" horiz-adv-x="1094" 
d="M140 525v1183h261v-1252q0 -156 33 -216t111 -60q79 0 115 61t36 215v1252h258v-1183q0 -81 -9.5 -150.5t-25 -120.5t-39 -92t-48 -68.5t-56 -48t-59 -32t-61 -18t-58 -8.5t-53.5 -2q-38 0 -69.5 3.5t-75 16t-77.5 34.5t-69.5 63t-59.5 96t-39 139t-15 188z" />
    <glyph glyph-name="V" unicode="V" horiz-adv-x="955" 
d="M329 0l-310 1708h265l188 -1353h11l189 1353h264l-311 -1708h-296z" />
    <glyph glyph-name="W" unicode="W" horiz-adv-x="1479" 
d="M283 0l-246 1708h248l115 -1032l13 -241h25l24 271l184 1002h207l176 -1002l20 -271h26l12 241l105 1032h249l-239 -1708h-263l-141 821l-44 357h-20l-43 -357l-148 -821h-260z" />
    <glyph glyph-name="X" unicode="X" horiz-adv-x="939" 
d="M33 0l312 860l-312 848h277l159 -546h10l159 546h268l-313 -849l313 -859h-267l-162 549h-17l-169 -549h-258z" />
    <glyph glyph-name="Y" unicode="Y" horiz-adv-x="959" 
d="M349 0v569l-344 1139h261l209 -817h12l207 817h260l-346 -1139v-569h-259z" />
    <glyph glyph-name="Z" unicode="Z" horiz-adv-x="865" 
d="M39 0v137l506 1367h-430v204h721v-137l-507 -1367h477v-204h-767z" />
    <glyph glyph-name="bracketleft" unicode="[" horiz-adv-x="776" 
d="M139 -256v2219h505v-192h-283v-1837h283v-190h-505z" />
    <glyph glyph-name="backslash" unicode="\" horiz-adv-x="552" 
d="M323 -326l-313 2210h219l313 -2210h-219z" />
    <glyph glyph-name="bracketright" unicode="]" horiz-adv-x="776" 
d="M131 -66h284v1837h-284v192h505v-2219h-505v190z" />
    <glyph glyph-name="asciicircum" unicode="^" horiz-adv-x="959" 
d="M35 277l323 1448h233l333 -1448h-219l-162 790l-51 335h-25l-54 -335l-159 -790h-219z" />
    <glyph glyph-name="underscore" unicode="_" horiz-adv-x="1381" 
d="M-5 -172h1391v-163h-1391v163z" />
    <glyph glyph-name="grave" unicode="`" horiz-adv-x="687" 
d="M448 1462l-334 384l169 137l290 -416z" />
    <glyph glyph-name="a" unicode="a" horiz-adv-x="924" 
d="M320 -15q-124 0 -195 93t-71 238q0 163 78 265t244 184q72 36 170 72v182q0 37 -1.5 61t-8 51t-18.5 42t-34 25t-53 10q-61 0 -100.5 -48.5t-39.5 -158.5v-60h-193q-18 78 -18 136q0 150 98.5 233t260.5 83q199 0 276 -85.5t77 -276.5v-1031h-188l-18 118
q-42 -61 -111.5 -97t-154.5 -36zM432 180q64 0 114 57v431q-70 -29 -99 -48q-62 -38 -103.5 -105t-41.5 -160q0 -82 32 -128.5t98 -46.5z" />
    <glyph glyph-name="b" unicode="b" horiz-adv-x="989" 
d="M130 0v1819h253v-367l-8 -182l1 -1q88 123 229 123q23 0 43 -2.5t50.5 -14t55 -30.5t51 -56.5t44.5 -88t30 -128.5t12 -174v-417q0 -497 -296 -497q-157 0 -246 144l-21 -128h-198zM383 279q43 -99 126 -99q62 0 94.5 54t32.5 197v527q0 143 -32 196.5t-94 53.5
q-80 0 -127 -93v-836z" />
    <glyph glyph-name="c" unicode="c" horiz-adv-x="871" 
d="M451 -15q-176 0 -266.5 144.5t-90.5 434.5v260q0 109 14.5 197t37.5 146t57 101.5t67 66.5t74 37t71.5 17.5t65.5 3.5q146 0 231 -76.5t85 -226.5q0 -83 -17 -149h-202v46q0 221 -105 221q-64 0 -93.5 -67t-29.5 -239v-391q0 -183 28 -257t101 -74q43 0 71 44.5t28 145.5
v43h218v-53q0 -193 -85.5 -284t-259.5 -91z" />
    <glyph glyph-name="d" unicode="d" horiz-adv-x="988" 
d="M394 -16q-296 0 -296 497v437q0 95 13 171.5t32 125t48.5 84t55 53t58.5 27.5t52 11.5t43 1.5q69 0 125 -33.5t88 -81.5l1 1l-8 174v367h252v-1819h-197l-22 128q-87 -144 -245 -144zM480 180q83 0 126 99v828q-46 101 -127 101q-30 0 -51.5 -10.5t-39.5 -36.5t-27 -76.5
t-9 -125.5v-528q0 -98 17.5 -155.5t44 -76.5t66.5 -19z" />
    <glyph glyph-name="e" unicode="e" horiz-adv-x="922" 
d="M462 -15q-182 0 -275 139t-93 440v260q0 109 15 197t38 146t57.5 101.5t68.5 66.5t76 37t73.5 17.5t68.5 3.5q57 0 106 -12.5t94.5 -43.5t77 -79t50.5 -123t19 -172q0 -177 -33 -322h-457v-140q0 -182 31 -251.5t116 -69.5q52 0 86 44.5t34 145.5v43h211v-53
q0 -192 -92 -283.5t-272 -91.5zM348 811h254q4 39 4 141q0 134 -31.5 195t-95.5 61q-69 0 -100 -70t-31 -243v-84z" />
    <glyph glyph-name="f" unicode="f" horiz-adv-x="616" 
d="M164 0v1197h-119v180h119v99q0 108 22 181.5t65 111t93 52.5t119 15q100 0 168 -34v-178q-42 11 -94 11q-55 0 -89.5 -37.5t-34.5 -121.5v-99h191v-180h-191v-1197h-249z" />
    <glyph glyph-name="g" unicode="g" horiz-adv-x="993" 
d="M157 -94h179q0 -87 32.5 -125t102.5 -38q65 0 104 44.5t39 160.5v217q-83 -107 -220 -107q-296 0 -296 498v362q0 93 12 167.5t30 123t45.5 84t53 54t58 29.5t55 13.5t48.5 2.5q162 0 238 -150l23 136h197v-1322q0 -239 -94 -370t-290 -131q-73 0 -129 12.5t-103.5 41.5
t-72.5 83.5t-25 133.5q0 34 13 80zM480 254q83 0 126 100v753q-46 101 -127 101q-30 0 -51.5 -10.5t-39.5 -36.5t-27 -76.5t-9 -125.5v-453q0 -143 33 -197.5t95 -54.5z" />
    <glyph glyph-name="h" unicode="h" horiz-adv-x="1022" 
d="M130 0v1819h253v-324l-13 -236q98 134 268 134q121 0 186.5 -86t65.5 -252v-1055h-253v1046q0 88 -27 125t-83 37q-38 0 -76.5 -26t-67.5 -70v-1112h-253z" />
    <glyph glyph-name="i" unicode="i" horiz-adv-x="521" 
d="M265 1574q-71 0 -111 43t-40 122q0 86 38.5 123t113.5 37q153 0 153 -160q0 -78 -40 -121.5t-114 -43.5zM134 0v1377h253v-1377h-253z" />
    <glyph glyph-name="j" unicode="j" horiz-adv-x="521" 
d="M265 1574q-71 0 -111 43t-40 122q0 86 38.5 123t113.5 37q153 0 153 -160q0 -78 -40 -121.5t-114 -43.5zM134 -116v1493h253v-1461q0 -87 -15 -152.5t-39.5 -104.5t-61 -62.5t-73.5 -32t-83 -8.5q-69 0 -122 24v147q20 -2 32 -2q109 0 109 159z" />
    <glyph glyph-name="k" unicode="k" horiz-adv-x="942" 
d="M134 0v1819h253v-1047h8l276 605h243l-306 -630l335 -747h-258l-290 683h-8v-683h-253z" />
    <glyph glyph-name="l" unicode="l" horiz-adv-x="521" 
d="M134 0v1819h253v-1819h-253z" />
    <glyph glyph-name="m" unicode="m" horiz-adv-x="1520" 
d="M130 0v1377h196l22 -147v-1q103 164 286 164q165 0 222 -156q104 156 281 156q121 0 186 -86t65 -252v-1055h-253v1046q0 89 -27 125.5t-90 36.5q-34 0 -69.5 -25.5t-64.5 -70.5q1 -12 1 -36v-1076h-253v1046q0 89 -27 125.5t-90 36.5q-34 0 -69 -25t-63 -69v-1114h-253z
" />
    <glyph glyph-name="n" unicode="n" horiz-adv-x="1020" 
d="M130 0v1377h195l23 -147v-1q103 164 288 164q121 0 186.5 -86t65.5 -252v-1055h-253v1046q0 88 -27 125t-83 37q-38 0 -75.5 -25t-66.5 -69v-1114h-253z" />
    <glyph glyph-name="o" unicode="o" horiz-adv-x="950" 
d="M477 -15q-61 0 -108.5 10t-101.5 47t-89.5 100t-59.5 177.5t-24 271.5v216q0 111 12.5 200.5t33 150t52 104.5t63 69t73 39.5t75 18.5t75.5 4q41 0 73.5 -4t73.5 -18t71.5 -38t62 -68t52 -104.5t33 -150.5t12.5 -203v-216q0 -111 -13 -201.5t-34 -152.5t-52.5 -108.5
t-63.5 -73.5t-71.5 -43.5t-73 -21.5t-71.5 -5zM479 180q69 0 96 75t27 268v339q0 193 -27.5 269.5t-95.5 76.5q-72 0 -101.5 -77t-29.5 -269v-339q0 -192 29.5 -267.5t101.5 -75.5z" />
    <glyph glyph-name="p" unicode="p" horiz-adv-x="990" 
d="M375 91l8 -169v-367h-253v1822h198l23 -145q97 160 255 160q23 0 43 -2.5t50.5 -14t55 -30.5t51 -56.5t44.5 -88t30 -128.5t12 -174v-417q0 -96 -12 -174t-30 -128.5t-45.5 -88.5t-52.5 -57.5t-57 -31t-53 -14t-46 -2.5q-139 0 -221 106zM383 281q43 -101 127 -101
q62 0 94.5 54t32.5 197v527q0 143 -32 196.5t-94 53.5q-81 0 -128 -95v-832z" />
    <glyph glyph-name="q" unicode="q" horiz-adv-x="988" 
d="M394 -15q-25 0 -46 2.5t-53 14t-57 31t-52.5 57.5t-45.5 88.5t-30 128.5t-12 174v417q0 96 12 174t30 128.5t44.5 88t51 56.5t55 30.5t50.5 14t43 2.5q158 0 253 -158l24 143h197v-1823h-252v367l7 168q-82 -104 -219 -104zM480 180q83 0 126 99v828q-46 101 -127 101
q-62 0 -94.5 -53.5t-32.5 -197.5v-526q0 -98 17.5 -155.5t44 -76.5t66.5 -19z" />
    <glyph glyph-name="r" unicode="r" horiz-adv-x="788" 
d="M130 0v1377h185l22 -140q40 76 95 116t113 40q213 0 213 -268q0 -87 -34 -187h-176v128q0 142 -67 142q-61 0 -98 -74v-1134h-253z" />
    <glyph glyph-name="s" unicode="s" horiz-adv-x="829" 
d="M76 288q0 79 25 154h178q0 -149 32 -205.5t115 -56.5q54 0 81.5 30.5t27.5 75.5q0 41 -20 77.5t-66 92.5l-185 218q-90 113 -137.5 205t-47.5 200q0 78 27.5 139t74.5 98.5t107 57t129 19.5q153 0 240 -73t87 -213q0 -72 -25 -170h-175q-2 147 -26.5 209t-96.5 62
q-61 0 -88 -34.5t-27 -84.5q0 -44 20.5 -84t63.5 -94l202 -237q35 -45 53 -69t50.5 -78t48.5 -108.5t16 -111.5q0 -148 -92.5 -235t-258.5 -87q-72 0 -130.5 16t-105 50t-72 94t-25.5 143z" />
    <glyph glyph-name="t" unicode="t" horiz-adv-x="675" 
d="M159 343v854h-107v180h129l51 357h180v-357h220v-180h-220v-876q0 -83 28.5 -112t80.5 -29q65 0 120 34v-140q-74 -90 -210 -90q-46 0 -83 8.5t-73.5 32t-61 62.5t-39.5 104t-15 152z" />
    <glyph glyph-name="u" unicode="u" horiz-adv-x="1021" 
d="M132 322v1055h253v-1035q0 -88 27 -125t83 -37q80 0 139 81v1116h253v-1377h-193l-25 147h-1q-103 -163 -284 -163q-121 0 -186.5 85.5t-65.5 252.5z" />
    <glyph glyph-name="v" unicode="v" horiz-adv-x="874" 
d="M326 0l-310 1377h252l133 -732l33 -293h8l38 293l132 732h244l-314 -1377h-216z" />
    <glyph glyph-name="w" unicode="w" horiz-adv-x="1338" 
d="M262 0l-227 1377h241l99 -746l24 -279h8l30 279l132 746h213l136 -746l37 -279h8l17 279l87 746h236l-223 -1377h-233l-143 766l-32 211h-8l-29 -211l-130 -766h-243z" />
    <glyph glyph-name="x" unicode="x" horiz-adv-x="902" 
d="M25 0l286 699l-272 678h259l147 -451h2l156 451h242l-261 -654l293 -723h-259l-170 475h-8l-172 -475h-243z" />
    <glyph glyph-name="y" unicode="y" horiz-adv-x="898" 
d="M78 -265q118 -17 189 48.5t77 208.5l-326 1385h257l145 -762l42 -263h8l29 263l117 762h249l-290 -1428q-39 -204 -123.5 -299t-241.5 -95q-65 0 -133 25z" />
    <glyph glyph-name="z" unicode="z" horiz-adv-x="703" 
d="M22 0v126l386 1059h-353v192h624v-126l-387 -1059h389v-192h-659z" />
    <glyph glyph-name="braceleft" unicode="{" horiz-adv-x="896" 
d="M284 129v422q0 115 -38 161.5t-118 51.5l-52 3v179l51 3q80 5 118 51.5t38 160.5v419q0 195 93 289.5t239 94.5q65 0 150 -26v-154h-38q-123 0 -171 -30t-48 -108v-401q0 -155 -35.5 -245t-126.5 -131v-26q89 -41 125.5 -131.5t36.5 -243.5v-405q0 -78 48 -108.5
t171 -30.5h38v-153q-83 -27 -150 -27q-146 0 -238.5 94.5t-92.5 290.5z" />
    <glyph glyph-name="bar" unicode="|" horiz-adv-x="714" 
d="M247 -326v2210h220v-2210h-220z" />
    <glyph glyph-name="braceright" unicode="}" horiz-adv-x="896" 
d="M131 -76h38q123 0 171 30.5t48 108.5v405q0 153 36.5 243.5t124.5 131.5v26q-90 41 -125.5 131t-35.5 245v401q0 78 -48 108t-171 30h-38v154q85 26 150 26q146 0 239 -94.5t93 -289.5v-419q0 -114 38 -160.5t118 -51.5l51 -3v-179l-52 -3q-80 -5 -118 -51.5t-38 -161.5
v-422q0 -196 -92.5 -290.5t-238.5 -94.5q-67 0 -150 27v153z" />
    <glyph glyph-name="asciitilde" unicode="~" horiz-adv-x="1304" 
d="M130 450q-8 101 4 179.5t39 129t68 83t87 45.5t100 13t101.5 -17t81 -44.5t63.5 -61t54.5 -67t47 -61t48.5 -44.5t52 -17q69 0 94.5 72.5t1.5 208.5h192q21 -117 7.5 -205.5t-54 -147t-96.5 -88t-121 -29.5q-76 0 -140 32t-106 77.5t-77.5 90.5t-71.5 77t-71 32
q-74 0 -105 -70.5t-13 -187.5h-186z" />
    <glyph glyph-name="DEL" 
 />
    <glyph glyph-name="nbspace" unicode="&#xa0;" horiz-adv-x="438" 
 />
    <glyph glyph-name="exclamdown" unicode="&#xa1;" horiz-adv-x="690" 
d="M208 -424l35 1258h207l31 -1258h-273zM191 1212q0 92 41.5 141.5t113.5 49.5q74 0 116 -50t42 -141q0 -97 -40.5 -146.5t-116.5 -49.5q-156 0 -156 196z" />
    <glyph glyph-name="cent" unicode="&#xa2;" horiz-adv-x="899" 
d="M395 -8q-141 26 -211.5 165t-70.5 407v260q0 489 281 557v242h186v-237q110 -19 172 -93.5t62 -202.5q0 -83 -17 -149h-192v46q0 105 -29 163t-84 58q-64 0 -94.5 -70.5t-30.5 -242.5v-394q0 -181 28.5 -251t102.5 -70q44 0 75.5 45t31.5 145v53h205v-63
q0 -160 -56.5 -249t-172.5 -115v-254h-186v250z" />
    <glyph glyph-name="sterling" unicode="&#xa3;" horiz-adv-x="1006" 
d="M98 0v152q18 8 32.5 20.5t24.5 32.5t17.5 37t11.5 47t7 50t3.5 59t1 59.5t0 66.5t-0.5 67v110h-129v179h129v344q0 252 93 375.5t293 123.5q91 0 161 -29t110 -79.5t60 -111.5t20 -132q0 -94 -26 -214h-201v71q0 292 -131 292q-65 0 -94.5 -64.5t-29.5 -231.5v-344h279
v-179h-279v-138q0 -244 -78 -359h536v-204h-810z" />
    <glyph glyph-name="currency" unicode="&#xa4;" horiz-adv-x="1287" 
d="M254 358l-138 155l181 161q-36 86 -36 184q0 107 38 198l-183 164l138 155l175 -162q84 52 199 52q126 0 219 -61l185 171l139 -155l-197 -175q36 -84 36 -187q0 -89 -35 -171l196 -174l-139 -155l-184 170q-93 -64 -220 -64q-115 0 -201 54zM628 691q77 0 120.5 49.5
t43.5 114.5q0 79 -42.5 131.5t-121.5 52.5q-70 0 -106 -53t-36 -131q0 -68 37 -116t105 -48z" />
    <glyph glyph-name="yen" unicode="&#xa5;" horiz-adv-x="1006" 
d="M137 217v179h236v151h-236v180h236l-335 981h261l198 -716h12l198 716h261l-337 -981h235v-180h-235v-151h235v-179h-235v-217h-258v217h-236z" />
    <glyph glyph-name="brokenbar" unicode="&#xa6;" horiz-adv-x="714" 
d="M247 940v944h220v-944h-220zM247 -326v1009h220v-1009h-220z" />
    <glyph glyph-name="section" unicode="&#xa7;" horiz-adv-x="1062" 
d="M166 -45q0 94 27 205h180v-109q0 -116 41 -175.5t105 -59.5q65 0 101 45t36 114q0 59 -34.5 112.5t-128.5 149.5l-157 160q-107 109 -153.5 193.5t-46.5 200.5q0 107 49 192t136 137q-82 92 -118.5 176.5t-36.5 185.5q0 154 101.5 249.5t275.5 95.5q91 0 161.5 -28.5
t111 -76t61 -103.5t20.5 -116q0 -95 -27 -206h-180v109q0 116 -41.5 176t-105.5 60q-65 0 -101 -45t-36 -115q0 -58 35 -112.5t129 -148.5l156 -161q106 -108 153 -193t47 -201q0 -107 -49 -192.5t-136 -137.5q82 -93 119 -176.5t37 -184.5q0 -153 -102 -248.5t-276 -95.5
q-91 0 -161.5 28.5t-111 76t-60.5 103t-20 116.5zM494 584l125 -123q82 68 82 174q0 60 -30.5 114.5t-101.5 123.5l-127 123q-80 -68 -80 -173q0 -60 30.5 -114.5t101.5 -124.5z" />
    <glyph glyph-name="dieresis" unicode="&#xa8;" horiz-adv-x="948" 
d="M688 1566q-75 0 -105.5 39t-30.5 123q0 89 29.5 130t106.5 41q80 0 113 -40.5t33 -130.5q0 -81 -33.5 -121.5t-112.5 -40.5zM251 1566q-75 0 -106 39.5t-31 122.5q0 89 30 130t107 41q80 0 112.5 -40.5t32.5 -130.5q0 -81 -33 -121.5t-112 -40.5z" />
    <glyph glyph-name="copyright" unicode="&#xa9;" horiz-adv-x="1458" 
d="M104 694v336q0 129 22.5 234.5t59.5 178t90 127.5t107.5 86.5t119.5 51t118.5 26t110.5 6.5q56 0 108 -6t116.5 -25t118.5 -50t107 -85.5t90 -127t59.5 -179.5t22.5 -237v-336q0 -130 -23 -237t-60 -179.5t-90 -127t-107.5 -85t-119 -49.5t-116.5 -25t-108 -6
q-57 0 -110.5 6.5t-118 26t-119 51t-107.5 86t-89.5 127t-59 178t-22.5 234.5zM260 670q0 -102 17 -185t44 -139.5t66.5 -98.5t80 -65.5t89.5 -38t88.5 -19t84.5 -4.5q44 0 82.5 4t88 18t89 37t80 65t68 98.5t45 140.5t17.5 187v384q0 103 -17 187t-44 140.5t-67.5 98.5
t-80.5 65t-89 37t-87.5 18t-82.5 4q-472 0 -472 -550v-384zM756 292q-335 0 -335 444v257q0 83 12.5 150t32 111.5t48.5 78t58 51.5t64 29t62 14t57 3q75 0 132 -23t87.5 -61t45 -80t14.5 -87q0 -64 -18 -159h-164v56q0 187 -102 187q-58 0 -85.5 -50t-27.5 -173v-367
q0 -120 28.5 -167t90.5 -47q44 0 70.5 38t26.5 114v85h185v-74q0 -160 -72.5 -244.5t-209.5 -85.5z" />
    <glyph glyph-name="ordfeminine" unicode="&#xaa;" horiz-adv-x="836" 
d="M309 649q-62 0 -110 21.5t-75.5 58.5t-41 81.5t-13.5 94.5q0 242 314 371q72 32 116 44v159q0 58 -20.5 88t-70.5 30q-122 0 -122 -159v-46h-182q-14 65 -14 122q0 102 80.5 174.5t238.5 72.5q96 0 162 -24t98.5 -68t45 -90.5t12.5 -106.5v-804h-172l-17 72
q-38 -38 -102 -64.5t-127 -26.5zM400 814q54 0 99 38v323q-44 -15 -66 -25q-56 -23 -101 -75.5t-45 -125.5q0 -61 30 -98t83 -37z" />
    <glyph glyph-name="guillemotleft" unicode="&#xab;" horiz-adv-x="1336" 
d="M529 305l-385 412v150l389 406l137 -124l-283 -359l279 -360zM1036 305l-385 412v150l389 406l137 -124l-283 -359l279 -360z" />
    <glyph glyph-name="logicalnot" unicode="&#xac;" horiz-adv-x="991" 
d="M45 692v195h860v-519h-198v324h-662z" />
    <glyph glyph-name="uni00AD" unicode="&#xad;" horiz-adv-x="1707" 
 />
    <glyph glyph-name="registered" unicode="&#xae;" horiz-adv-x="1479" 
d="M740 184q-55 0 -107.5 6.5t-117.5 26t-121 50.5t-111 85t-93.5 124.5t-62 174t-23.5 228.5v166q0 125 24 229t62.5 174.5t93.5 124.5t111 85t121.5 50t118 25.5t107.5 6.5q53 0 104.5 -6t116.5 -24.5t120.5 -49t111 -84t94 -124.5t62.5 -175.5t24 -231.5v-166
q0 -127 -24 -231.5t-63 -175.5t-94.5 -124.5t-111.5 -84t-121 -49t-116.5 -24.5t-104.5 -6zM740 330q46 0 87 4.5t91 18.5t90.5 37.5t81 65t68 97t45 137t17.5 181.5v182q0 100 -17 181.5t-44 137t-67.5 97t-81.5 65t-91 37.5t-90.5 18.5t-86.5 4.5q-47 0 -89 -5t-92 -19.5
t-91.5 -38.5t-81.5 -66t-67 -97t-44 -135.5t-17 -179.5v-182q0 -541 480 -541zM478 562v825h183q39 0 68.5 -1.5t70.5 -7t71 -15t62.5 -28.5t53 -45t33.5 -65.5t13 -89.5v-30q0 -74 -33.5 -129t-95.5 -83l187 -331h-207l-128 280h-95v-280h-183zM661 968h31q77 0 109 32
t32 102v42q0 58 -32 87.5t-109 29.5h-31v-293z" />
    <glyph glyph-name="macron" unicode="&#xaf;" horiz-adv-x="851" 
d="M114 1633v193h623v-193h-623z" />
    <glyph glyph-name="degree" unicode="&#xb0;" horiz-adv-x="889" 
d="M439 1072q-81 0 -146 30t-105 80.5t-61 113.5t-21 132q0 73 20 137.5t59.5 116.5t105 82.5t148.5 30.5q111 0 190.5 -52.5t116.5 -134t37 -180.5q0 -52 -13.5 -103t-41.5 -96.5t-68 -80.5t-97 -55.5t-124 -20.5zM436 1265q70 0 108.5 48t38.5 112q0 75 -38 126t-109 51
q-64 0 -97 -51t-33 -126q0 -66 34 -113t96 -47z" />
    <glyph glyph-name="plusminus" unicode="&#xb1;" horiz-adv-x="916" 
d="M357 537v323h-271v195h271v314h199v-314h274v-195h-274v-323h-199zM86 169v195h744v-195h-744z" />
    <glyph glyph-name="twosuperior" unicode="&#xb2;" horiz-adv-x="864" 
d="M116 677v118l266 398q71 103 93.5 168.5t22.5 126.5q0 108 -91 108q-45 0 -72.5 -39.5t-27.5 -111.5v-53h-184q-14 81 -14 112q0 116 82 186.5t227 70.5q45 0 84.5 -5.5t84 -23.5t76.5 -47t53 -79.5t21 -117.5q0 -80 -31 -158t-114 -196l-198 -284h344v-173h-622z" />
    <glyph glyph-name="threesuperior" unicode="&#xb3;" horiz-adv-x="861" 
d="M401 666q-158 0 -236.5 72.5t-78.5 174.5q0 55 14 133h186v-46q0 -170 115 -170q112 0 112 116v73q0 71 -32 105t-84 34h-80v135h80q47 0 76.5 30.5t29.5 94.5v71q0 108 -102 108q-105 0 -105 -159v-46h-182q-14 65 -14 122q0 102 78 174.5t231 72.5q46 0 87 -6t84.5 -24
t74 -46t50.5 -75.5t20 -109.5v-63q-17 -157 -132 -207v-8q67 -28 104.5 -84t37.5 -127v-65q0 -67 -21.5 -118t-54.5 -81t-79 -49t-88.5 -25.5t-90.5 -6.5z" />
    <glyph glyph-name="acute" unicode="&#xb4;" horiz-adv-x="687" 
d="M239 1462l-125 105l290 416l169 -137z" />
    <glyph glyph-name="mu" unicode="&#xb5;" horiz-adv-x="1036" 
d="M122 -328l-1 1705h262v-1033q0 -89 28 -126t89 -37q79 0 132 63v1133h266v-1377h-206l-17 96q-31 -47 -83 -79.5t-102 -32.5q-38 0 -67.5 12t-58.5 47l-8 1l7 -372h-241z" />
    <glyph glyph-name="paragraph" unicode="&#xb6;" horiz-adv-x="1101" 
d="M683 0v1708h258v-1708h-258zM481 520q-36 0 -64 3t-70 16t-73.5 36t-66 68t-57 106.5t-37 156.5t-14.5 213v60q0 104 14.5 187.5t37 137.5t57 94t66 60.5t73 32.5t70 14.5t64.5 2.5h31v-1188h-31z" />
    <glyph glyph-name="periodcentered" unicode="&#xb7;" horiz-adv-x="561" 
d="M121 793q0 198 156 198q75 0 116 -50t41 -148q0 -91 -42 -142t-116 -51q-72 0 -113.5 50t-41.5 143z" />
    <glyph glyph-name="cedilla" unicode="&#xb8;" horiz-adv-x="594" 
d="M472 -1l6 -103q5 -81 -10 -142t-39 -92.5t-57.5 -51t-58 -24.5t-48.5 -5q-72 0 -151 30l7 151q11 -1 33 -1q75 0 112 37t42 146l2 44l93 148z" />
    <glyph glyph-name="onesuperior" unicode="&#xb9;" horiz-adv-x="770" 
d="M160 677v162h127v611l-133 -112l-88 132l265 256h178v-887h134v-162h-483z" />
    <glyph glyph-name="ordmasculine" unicode="&#xba;" horiz-adv-x="919" 
d="M471 666q-48 0 -92.5 9.5t-91.5 35t-81.5 66t-56.5 108t-22 154.5v350q0 87 22 154.5t56.5 107.5t81.5 65.5t91.5 35t92.5 9.5q47 0 91.5 -9.5t91.5 -35.5t81.5 -66t56.5 -108t22 -155v-347q0 -87 -22 -155t-56.5 -108t-81.5 -66t-91.5 -35.5t-91.5 -9.5zM471 830
q69 0 95.5 49.5t26.5 159.5v348q0 110 -26.5 160t-95.5 50t-96 -49.5t-27 -158.5v-349q0 -111 27 -160.5t96 -49.5z" />
    <glyph glyph-name="guillemotright" unicode="&#xbb;" horiz-adv-x="1368" 
d="M693 717l-385 -412l-137 125l279 360l-283 359l137 124l389 -406v-150zM1214 717l-385 -412l-137 125l279 360l-283 359l137 124l389 -406v-150z" />
    <glyph glyph-name="onequarter" unicode="&#xbc;" horiz-adv-x="1825" 
d="M1002 185v96l373 788h257v-730h87v-154h-87v-184h-222v184h-408zM1223 339h187v37l26 420h-12zM772 0h-182l459 1709h182zM201 677v162h127v611l-133 -112l-88 132l265 256h178v-887h134v-162h-483z" />
    <glyph glyph-name="onehalf" unicode="&#xbd;" horiz-adv-x="1861" 
d="M772 0h-182l459 1709h182zM201 677v162h127v611l-133 -112l-88 132l265 256h178v-887h134v-162h-483zM1123 0v118l266 398q71 103 93.5 168.5t22.5 126.5q0 108 -91 108q-45 0 -72.5 -39.5t-27.5 -111.5v-53h-184q-14 81 -14 112q0 116 82 186.5t227 70.5q45 0 84.5 -5.5
t84 -23.5t76.5 -47t53 -79.5t21 -117.5q0 -80 -31 -158t-114 -196l-198 -284h344v-173h-622z" />
    <glyph glyph-name="threequarters" unicode="&#xbe;" horiz-adv-x="1869" 
d="M1046 185v96l373 788h258v-730h86v-154h-86v-184h-223v184h-408zM1267 339h187v37l27 420h-13zM814 0h-182l459 1709h182zM431 666q-158 0 -236.5 72.5t-78.5 174.5q0 55 14 133h186v-46q0 -170 115 -170q112 0 112 116v73q0 71 -32 105t-84 34h-80v135h80
q47 0 76.5 30.5t29.5 94.5v71q0 108 -102 108q-105 0 -105 -159v-46h-182q-14 65 -14 122q0 102 78 174.5t231 72.5q46 0 87 -6t84.5 -24t74 -46t50.5 -75.5t20 -109.5v-63q-17 -157 -132 -207v-8q67 -28 104.5 -84t37.5 -127v-65q0 -67 -21.5 -118t-54.5 -81t-79 -49
t-88.5 -25.5t-90.5 -6.5z" />
    <glyph glyph-name="questiondown" unicode="&#xbf;" horiz-adv-x="1026" 
d="M625 832l-1 -203q0 -84 -11.5 -130t-53.5 -113l-118 -186q-82 -132 -82 -250q0 -83 42.5 -133.5t114.5 -50.5q157 0 157 280v82h204q27 -143 27 -204q0 -161 -100 -261.5t-298 -100.5q-202 0 -307.5 103.5t-105.5 284.5q0 96 35.5 183.5t115.5 195.5l80 108
q54 74 67 117.5t13 133.5v144h221zM656 1212q0 -196 -156 -196q-76 0 -116.5 49.5t-40.5 146.5q0 91 42 141t116 50q72 0 113.5 -49.5t41.5 -141.5z" />
    <glyph glyph-name="Agrave" unicode="&#xc0;" horiz-adv-x="967" 
d="M19 0l315 1708h298l316 -1708h-262l-47 306h-312l-45 -306h-263zM357 501h252l-120 851h-11zM485 1733l-345 166l129 167l321 -216z" />
    <glyph glyph-name="Aacute" unicode="&#xc1;" horiz-adv-x="967" 
d="M19 0l315 1708h298l316 -1708h-262l-47 306h-312l-45 -306h-263zM357 501h252l-120 851h-11zM484 1733l-105 117l321 216l129 -167z" />
    <glyph glyph-name="Acircumflex" unicode="&#xc2;" horiz-adv-x="967" 
d="M19 0l315 1708h298l316 -1708h-262l-47 306h-312l-45 -306h-263zM357 501h252l-120 851h-11zM595 1756l-69 130l-40 56l-40 -56l-84 -130h-248l250 310h234l246 -310h-249z" />
    <glyph glyph-name="Atilde" unicode="&#xc3;" horiz-adv-x="967" 
d="M19 0l315 1708h298l316 -1708h-262l-47 306h-312l-45 -306h-263zM357 501h252l-120 851h-11zM650 1729q-106 0 -192 69q-17 15 -39.5 36t-31.5 29t-22.5 14.5t-28.5 6.5q-43 0 -43 -64v-72h-178q-4 60 -4 81q0 126 61 181.5t160 55.5q56 0 97 -16t83 -51q3 -3 21.5 -21
t27 -25t24 -19.5t28.5 -17.5t25 -5q50 0 50 58v78h159q11 -66 11 -106q0 -99 -61 -155.5t-147 -56.5z" />
    <glyph glyph-name="Adieresis" unicode="&#xc4;" horiz-adv-x="967" 
d="M19 0l315 1708h298l316 -1708h-262l-47 306h-312l-45 -306h-263zM357 501h252l-120 851h-11zM699 1751q-75 0 -105.5 39.5t-30.5 118.5q0 82 29.5 119.5t106.5 37.5q80 0 113 -37t33 -120q0 -76 -34 -117t-112 -41zM262 1751q-75 0 -106 39.5t-31 118.5q0 82 30 119.5
t107 37.5q80 0 112.5 -37t32.5 -120q0 -77 -33.5 -117.5t-111.5 -40.5z" />
    <glyph glyph-name="Aring" unicode="&#xc5;" horiz-adv-x="964" 
d="M18 0l284 1526q-65 39 -99 106t-34 144q0 125 80 207t234 82q157 0 240.5 -81.5t83.5 -207.5q0 -75 -37.5 -143.5t-107.5 -108.5l285 -1524h-260l-47 306h-316l-45 -306h-261zM482 1643q75 0 116.5 39t41.5 90q0 59 -40.5 95t-117.5 36q-69 0 -104 -36t-35 -95
q0 -53 36.5 -91t102.5 -38zM354 501h256l-122 855h-11z" />
    <glyph glyph-name="AE" unicode="&#xc6;" horiz-adv-x="1266" 
d="M11 0l432 1708h797v-205h-394v-508h307v-224h-307v-566h394v-205h-650v306h-255l-63 -306h-261zM374 492h216v864h-37z" />
    <glyph glyph-name="Ccedilla" unicode="&#xc7;" horiz-adv-x="936" 
d="M514 -15q-39 0 -74 4.5t-78.5 19.5t-79 39t-71 68t-59 102.5t-38.5 145t-15 192.5v605q0 107 15 193t39.5 143.5t60 100.5t71 66.5t79 37t77 17.5t72.5 4q98 0 169.5 -28t111.5 -79.5t58 -114t18 -140.5q0 -95 -22 -204h-210v87q0 281 -122 281q-74 0 -109.5 -64.5
t-35.5 -222.5v-780q0 -157 31.5 -217t111.5 -60q54 0 90.5 50.5t36.5 147.5v167h237v-158q0 -401 -364 -403zM603 -1l6 -103q5 -81 -10 -142t-39 -92.5t-57.5 -51t-58 -24.5t-48.5 -5q-72 0 -151 30l7 151q11 -1 33 -1q75 0 112 37t42 146l2 44l93 148z" />
    <glyph glyph-name="Egrave" unicode="&#xc8;" horiz-adv-x="830" 
d="M146 0v1708h633v-204h-374v-511h289v-204h-289v-585h384v-204h-643zM480 1733l-345 166l129 167l321 -216z" />
    <glyph glyph-name="Eacute" unicode="&#xc9;" horiz-adv-x="830" 
d="M146 0v1708h633v-204h-374v-511h289v-204h-289v-585h384v-204h-643zM479 1733l-105 117l321 216l129 -167z" />
    <glyph glyph-name="Ecircumflex" unicode="&#xca;" horiz-adv-x="830" 
d="M146 0v1708h633v-204h-374v-511h289v-204h-289v-585h384v-204h-643zM590 1756l-69 130l-40 56l-40 -56l-84 -130h-248l250 310h234l246 -310h-249z" />
    <glyph glyph-name="Edieresis" unicode="&#xcb;" horiz-adv-x="830" 
d="M146 0v1708h633v-204h-374v-511h289v-204h-289v-585h384v-204h-643zM694 1751q-75 0 -105.5 39.5t-30.5 118.5q0 82 29.5 119.5t106.5 37.5q80 0 113 -37t33 -120q0 -76 -34 -117t-112 -41zM257 1751q-75 0 -106 39.5t-31 118.5q0 82 30 119.5t107 37.5q80 0 112.5 -37
t32.5 -120q0 -77 -33.5 -117.5t-111.5 -40.5z" />
    <glyph glyph-name="Igrave" unicode="&#xcc;" horiz-adv-x="551" 
d="M146 0v1708h259v-1708h-259zM275 1733l-345 166l129 167l321 -216z" />
    <glyph glyph-name="Iacute" unicode="&#xcd;" horiz-adv-x="551" 
d="M146 0v1708h259v-1708h-259zM274 1733l-105 117l321 216l129 -167z" />
    <glyph glyph-name="Icircumflex" unicode="&#xce;" horiz-adv-x="551" 
d="M146 0v1708h259v-1708h-259zM385 1756l-69 130l-40 56l-40 -56l-84 -130h-248l250 310h234l246 -310h-249z" />
    <glyph glyph-name="Idieresis" unicode="&#xcf;" horiz-adv-x="551" 
d="M146 0v1708h259v-1708h-259zM489 1751q-75 0 -105.5 39.5t-30.5 118.5q0 82 29.5 119.5t106.5 37.5q80 0 113 -37t33 -120q0 -76 -34 -117t-112 -41zM52 1751q-75 0 -106 39.5t-31 118.5q0 82 30 119.5t107 37.5q80 0 112.5 -37t32.5 -120q0 -77 -33.5 -117.5
t-111.5 -40.5z" />
    <glyph glyph-name="Eth" unicode="&#xd0;" horiz-adv-x="1037" 
d="M128 0v817h-85v202h85v706h278q51 0 91 -3t98.5 -16.5t103 -36.5t92 -67.5t78.5 -106t51.5 -155.5t20.5 -211v-523q0 -94 -12.5 -173t-32.5 -136.5t-51 -104t-63 -77t-74 -53t-77 -34t-80 -18.5t-75.5 -8.5t-69.5 -1.5h-278zM387 180h31q137 0 195.5 90t58.5 288v591
q0 190 -57 280t-197 90h-31v-500h158v-202h-158v-637z" />
    <glyph glyph-name="Ntilde" unicode="&#xd1;" horiz-adv-x="1123" 
d="M144 0v1708h210l414 -1143h6q-1 11 -6 66.5t-7.5 89.5t-6.5 94t-5.5 127.5t-1.5 142.5v623h232v-1708h-212l-412 1113h-8q0 -4 7.5 -92.5t10 -134t6 -154.5t3.5 -230v-502h-230zM728 1729q-106 0 -192 69q-17 15 -39.5 36t-31.5 29t-22.5 14.5t-28.5 6.5q-43 0 -43 -64
v-72h-178q-4 60 -4 81q0 126 61 181.5t160 55.5q56 0 97 -16t83 -51q3 -3 21.5 -21t27 -25t24 -19.5t28.5 -17.5t25 -5q50 0 50 58v78h159q11 -66 11 -106q0 -99 -61 -155.5t-147 -56.5z" />
    <glyph glyph-name="Ograve" unicode="&#xd2;" horiz-adv-x="1070" 
d="M537 -15q-40 0 -76 4.5t-80.5 19.5t-81 39t-72.5 68t-60.5 102.5t-39.5 145t-15 192.5v605q0 107 15.5 193t40.5 143.5t61.5 100.5t72.5 66.5t81 37t79.5 17.5t74.5 4q39 0 72 -3.5t78 -17t80.5 -36t72.5 -65t62 -100t40.5 -145t15.5 -195.5v-605q0 -105 -16 -191
t-41.5 -144t-62 -102t-73 -69t-80 -40t-78 -20t-70.5 -5zM537 180q79 0 115 60.5t36 214.5v777q0 160 -36 223.5t-115 63.5q-81 0 -117.5 -63.5t-36.5 -223.5v-777q0 -154 36 -214.5t118 -60.5zM533 1733l-345 166l129 167l321 -216z" />
    <glyph glyph-name="Oacute" unicode="&#xd3;" horiz-adv-x="1070" 
d="M537 -15q-40 0 -76 4.5t-80.5 19.5t-81 39t-72.5 68t-60.5 102.5t-39.5 145t-15 192.5v605q0 107 15.5 193t40.5 143.5t61.5 100.5t72.5 66.5t81 37t79.5 17.5t74.5 4q39 0 72 -3.5t78 -17t80.5 -36t72.5 -65t62 -100t40.5 -145t15.5 -195.5v-605q0 -105 -16 -191
t-41.5 -144t-62 -102t-73 -69t-80 -40t-78 -20t-70.5 -5zM537 180q79 0 115 60.5t36 214.5v777q0 160 -36 223.5t-115 63.5q-81 0 -117.5 -63.5t-36.5 -223.5v-777q0 -154 36 -214.5t118 -60.5zM532 1733l-105 117l321 216l129 -167z" />
    <glyph glyph-name="Ocircumflex" unicode="&#xd4;" horiz-adv-x="1070" 
d="M537 -15q-40 0 -76 4.5t-80.5 19.5t-81 39t-72.5 68t-60.5 102.5t-39.5 145t-15 192.5v605q0 107 15.5 193t40.5 143.5t61.5 100.5t72.5 66.5t81 37t79.5 17.5t74.5 4q39 0 72 -3.5t78 -17t80.5 -36t72.5 -65t62 -100t40.5 -145t15.5 -195.5v-605q0 -105 -16 -191
t-41.5 -144t-62 -102t-73 -69t-80 -40t-78 -20t-70.5 -5zM537 180q79 0 115 60.5t36 214.5v777q0 160 -36 223.5t-115 63.5q-81 0 -117.5 -63.5t-36.5 -223.5v-777q0 -154 36 -214.5t118 -60.5zM643 1756l-69 130l-40 56l-40 -56l-84 -130h-248l250 310h234l246 -310h-249z
" />
    <glyph glyph-name="Otilde" unicode="&#xd5;" horiz-adv-x="1070" 
d="M537 -15q-40 0 -76 4.5t-80.5 19.5t-81 39t-72.5 68t-60.5 102.5t-39.5 145t-15 192.5v605q0 107 15.5 193t40.5 143.5t61.5 100.5t72.5 66.5t81 37t79.5 17.5t74.5 4q39 0 72 -3.5t78 -17t80.5 -36t72.5 -65t62 -100t40.5 -145t15.5 -195.5v-605q0 -105 -16 -191
t-41.5 -144t-62 -102t-73 -69t-80 -40t-78 -20t-70.5 -5zM537 180q79 0 115 60.5t36 214.5v777q0 160 -36 223.5t-115 63.5q-81 0 -117.5 -63.5t-36.5 -223.5v-777q0 -154 36 -214.5t118 -60.5zM698 1729q-106 0 -192 69q-17 15 -39.5 36t-31.5 29t-22.5 14.5t-28.5 6.5
q-43 0 -43 -64v-72h-178q-4 60 -4 81q0 126 61 181.5t160 55.5q56 0 97 -16t83 -51q3 -3 21.5 -21t27 -25t24 -19.5t28.5 -17.5t25 -5q50 0 50 58v78h159q11 -66 11 -106q0 -99 -61 -155.5t-147 -56.5z" />
    <glyph glyph-name="Odieresis" unicode="&#xd6;" horiz-adv-x="1070" 
d="M537 -15q-40 0 -76 4.5t-80.5 19.5t-81 39t-72.5 68t-60.5 102.5t-39.5 145t-15 192.5v605q0 107 15.5 193t40.5 143.5t61.5 100.5t72.5 66.5t81 37t79.5 17.5t74.5 4q39 0 72 -3.5t78 -17t80.5 -36t72.5 -65t62 -100t40.5 -145t15.5 -195.5v-605q0 -105 -16 -191
t-41.5 -144t-62 -102t-73 -69t-80 -40t-78 -20t-70.5 -5zM537 180q79 0 115 60.5t36 214.5v777q0 160 -36 223.5t-115 63.5q-81 0 -117.5 -63.5t-36.5 -223.5v-777q0 -154 36 -214.5t118 -60.5zM747 1751q-75 0 -105.5 39.5t-30.5 118.5q0 82 29.5 119.5t106.5 37.5
q80 0 113 -37t33 -120q0 -76 -34 -117t-112 -41zM310 1751q-75 0 -106 39.5t-31 118.5q0 82 30 119.5t107 37.5q80 0 112.5 -37t32.5 -120q0 -77 -33.5 -117.5t-111.5 -40.5z" />
    <glyph glyph-name="multiply" unicode="&#xd7;" horiz-adv-x="860" 
d="M196 419l-130 132l234 239l-234 239l130 132l234 -239l235 239l130 -132l-235 -239l235 -239l-130 -132l-235 238z" />
    <glyph glyph-name="Oslash" unicode="&#xd8;" horiz-adv-x="1039" 
d="M860 1878l-561 -2049h-125l561 2049h125zM524 -15q-40 0 -76 4.5t-80.5 19.5t-81 39t-72.5 68t-60.5 102.5t-39.5 145t-15 192.5v605q0 107 15.5 193t40.5 143.5t61.5 100.5t72.5 66.5t81 37t79.5 17.5t74.5 4q39 0 72 -3.5t78 -17t80.5 -36t72.5 -65t62 -100t40.5 -145
t15.5 -195.5v-605q0 -105 -16 -191t-41.5 -144t-62 -102t-73 -69t-80 -40t-78 -20t-70.5 -5zM524 180q79 0 115 60.5t36 214.5v777q0 160 -36 223.5t-115 63.5q-81 0 -117.5 -63.5t-36.5 -223.5v-777q0 -154 36 -214.5t118 -60.5z" />
    <glyph glyph-name="Ugrave" unicode="&#xd9;" horiz-adv-x="1105" 
d="M144 525v1183h261v-1252q0 -156 33 -216t111 -60q79 0 115 61t36 215v1252h258v-1183q0 -81 -9.5 -150.5t-25 -120.5t-39 -92t-48 -68.5t-56 -48t-59 -32t-61 -18t-58 -8.5t-53.5 -2q-38 0 -69.5 3.5t-75 16t-77.5 34.5t-69.5 63t-59.5 96t-39 139t-15 188zM561 1733
l-345 166l129 167l321 -216z" />
    <glyph glyph-name="Uacute" unicode="&#xda;" horiz-adv-x="1105" 
d="M144 525v1183h261v-1252q0 -156 33 -216t111 -60q79 0 115 61t36 215v1252h258v-1183q0 -81 -9.5 -150.5t-25 -120.5t-39 -92t-48 -68.5t-56 -48t-59 -32t-61 -18t-58 -8.5t-53.5 -2q-38 0 -69.5 3.5t-75 16t-77.5 34.5t-69.5 63t-59.5 96t-39 139t-15 188zM560 1733
l-105 117l321 216l129 -167z" />
    <glyph glyph-name="Ucircumflex" unicode="&#xdb;" horiz-adv-x="1105" 
d="M144 525v1183h261v-1252q0 -156 33 -216t111 -60q79 0 115 61t36 215v1252h258v-1183q0 -81 -9.5 -150.5t-25 -120.5t-39 -92t-48 -68.5t-56 -48t-59 -32t-61 -18t-58 -8.5t-53.5 -2q-38 0 -69.5 3.5t-75 16t-77.5 34.5t-69.5 63t-59.5 96t-39 139t-15 188zM671 1756
l-69 130l-40 56l-40 -56l-84 -130h-248l250 310h234l246 -310h-249z" />
    <glyph glyph-name="Udieresis" unicode="&#xdc;" horiz-adv-x="1105" 
d="M144 525v1183h261v-1252q0 -156 33 -216t111 -60q79 0 115 61t36 215v1252h258v-1183q0 -81 -9.5 -150.5t-25 -120.5t-39 -92t-48 -68.5t-56 -48t-59 -32t-61 -18t-58 -8.5t-53.5 -2q-38 0 -69.5 3.5t-75 16t-77.5 34.5t-69.5 63t-59.5 96t-39 139t-15 188zM775 1751
q-75 0 -105.5 39.5t-30.5 118.5q0 82 29.5 119.5t106.5 37.5q80 0 113 -37t33 -120q0 -76 -34 -117t-112 -41zM338 1751q-75 0 -106 39.5t-31 118.5q0 82 30 119.5t107 37.5q80 0 112.5 -37t32.5 -120q0 -77 -33.5 -117.5t-111.5 -40.5z" />
    <glyph glyph-name="Yacute" unicode="&#xdd;" horiz-adv-x="959" 
d="M349 0v569l-344 1139h261l209 -817h12l207 817h260l-346 -1139v-569h-259zM480 1733l-105 117l321 216l129 -167z" />
    <glyph glyph-name="Thorn" unicode="&#xde;" horiz-adv-x="1002" 
d="M146 0v1708h257v-255h11q39 0 69 -1.5t73.5 -7.5t78 -16t74.5 -29.5t70.5 -46t60.5 -67t49 -91t31 -119t12 -150.5v-61q0 -113 -18 -205t-46.5 -153.5t-71 -107t-85 -70.5t-95.5 -40t-95 -19.5t-91 -4.5h-25v-264h-259zM405 455h13q139 0 193.5 82.5t54.5 279.5v153
q0 158 -53 226.5t-195 68.5h-13v-810z" />
    <glyph glyph-name="germandbls" unicode="&#xdf;" horiz-adv-x="1036" 
d="M134 -443v1851q0 207 106 313.5t294 106.5q194 0 292 -96t98 -258q0 -81 -23 -157.5t-76 -182.5q-44 -73 -58.5 -112.5t-14.5 -73.5q0 -52 49 -158l92 -197q29 -78 41 -115t22.5 -86.5t10.5 -94.5q0 -63 -15.5 -118t-46.5 -100t-84 -71.5t-123 -26.5q-81 0 -156 30v176
q30 -7 65 -7q42 0 72.5 28t30.5 88q0 74 -62 213l-72 161q-33 73 -49.5 126.5t-16.5 110.5q0 53 19 101t69 132q56 93 72 156t16 140q0 86 -41 139.5t-116 53.5q-64 0 -103 -34.5t-39 -109.5v-1928h-253z" />
    <glyph glyph-name="agrave" unicode="&#xe0;" horiz-adv-x="924" 
d="M334 -15q-124 0 -195 93t-71 238q0 163 78 265t244 184q72 36 170 72v182q0 37 -1.5 61t-8 51t-18.5 42t-34 25t-53 10q-61 0 -100.5 -48.5t-39.5 -158.5v-60h-193q-18 78 -18 136q0 150 98.5 233t260.5 83q199 0 276 -85.5t77 -276.5v-1031h-188l-18 118
q-42 -61 -111.5 -97t-154.5 -36zM446 180q64 0 114 57v431q-70 -29 -99 -48q-62 -38 -103.5 -105t-41.5 -160q0 -82 32 -128.5t98 -46.5zM422 1462l-334 384l169 137l290 -416z" />
    <glyph glyph-name="aacute" unicode="&#xe1;" horiz-adv-x="924" 
d="M334 -15q-124 0 -195 93t-71 238q0 163 78 265t244 184q72 36 170 72v182q0 37 -1.5 61t-8 51t-18.5 42t-34 25t-53 10q-61 0 -100.5 -48.5t-39.5 -158.5v-60h-193q-18 78 -18 136q0 150 98.5 233t260.5 83q199 0 276 -85.5t77 -276.5v-1031h-188l-18 118
q-42 -61 -111.5 -97t-154.5 -36zM446 180q64 0 114 57v431q-70 -29 -99 -48q-62 -38 -103.5 -105t-41.5 -160q0 -82 32 -128.5t98 -46.5zM422 1462l-125 105l290 416l169 -137z" />
    <glyph glyph-name="acircumflex" unicode="&#xe2;" horiz-adv-x="924" 
d="M334 -15q-124 0 -195 93t-71 238q0 163 78 265t244 184q72 36 170 72v182q0 37 -1.5 61t-8 51t-18.5 42t-34 25t-53 10q-61 0 -100.5 -48.5t-39.5 -158.5v-60h-193q-18 78 -18 136q0 150 98.5 233t260.5 83q199 0 276 -85.5t77 -276.5v-1031h-188l-18 118
q-42 -61 -111.5 -97t-154.5 -36zM446 180q64 0 114 57v431q-70 -29 -99 -48q-62 -38 -103.5 -105t-41.5 -160q0 -82 32 -128.5t98 -46.5zM563 1485l-88 212l-51 172l-50 -172l-94 -212h-218l270 581h174l276 -581h-219z" />
    <glyph glyph-name="atilde" unicode="&#xe3;" horiz-adv-x="924" 
d="M334 -15q-124 0 -195 93t-71 238q0 163 78 265t244 184q72 36 170 72v182q0 37 -1.5 61t-8 51t-18.5 42t-34 25t-53 10q-61 0 -100.5 -48.5t-39.5 -158.5v-60h-193q-18 78 -18 136q0 150 98.5 233t260.5 83q199 0 276 -85.5t77 -276.5v-1031h-188l-18 118
q-42 -61 -111.5 -97t-154.5 -36zM446 180q64 0 114 57v431q-70 -29 -99 -48q-62 -38 -103.5 -105t-41.5 -160q0 -82 32 -128.5t98 -46.5zM588 1587q-59 0 -103.5 19t-88.5 59q-17 15 -39.5 36t-31.5 29t-22.5 14.5t-28.5 6.5q-43 0 -43 -64v-72h-178q-4 60 -4 82
q0 131 61 188.5t160 57.5q56 0 97 -18.5t83 -58.5q3 -3 21.5 -21t27 -25t24 -19.5t28.5 -17.5t25 -5q50 0 50 59v87h159q11 -65 11 -106q0 -109 -60.5 -170t-147.5 -61z" />
    <glyph glyph-name="adieresis" unicode="&#xe4;" horiz-adv-x="924" 
d="M334 -15q-124 0 -195 93t-71 238q0 163 78 265t244 184q72 36 170 72v182q0 37 -1.5 61t-8 51t-18.5 42t-34 25t-53 10q-61 0 -100.5 -48.5t-39.5 -158.5v-60h-193q-18 78 -18 136q0 150 98.5 233t260.5 83q199 0 276 -85.5t77 -276.5v-1031h-188l-18 118
q-42 -61 -111.5 -97t-154.5 -36zM446 180q64 0 114 57v431q-70 -29 -99 -48q-62 -38 -103.5 -105t-41.5 -160q0 -82 32 -128.5t98 -46.5zM637 1566q-75 0 -105.5 39t-30.5 123q0 89 29.5 130t106.5 41q80 0 113 -40.5t33 -130.5q0 -81 -33.5 -121.5t-112.5 -40.5zM200 1566
q-75 0 -106 39.5t-31 122.5q0 89 30 130t107 41q80 0 112.5 -40.5t32.5 -130.5q0 -81 -33 -121.5t-112 -40.5z" />
    <glyph glyph-name="aring" unicode="&#xe5;" horiz-adv-x="924" 
d="M334 -15q-124 0 -195 93t-71 238q0 163 78 265t244 184q72 36 170 72v182q0 37 -1.5 61t-8 51t-18.5 42t-34 25t-53 10q-61 0 -100.5 -48.5t-39.5 -158.5v-60h-193q-18 78 -18 136q0 150 98.5 233t260.5 83q199 0 276 -85.5t77 -276.5v-1031h-188l-18 118
q-42 -61 -111.5 -97t-154.5 -36zM446 180q64 0 114 57v431q-70 -29 -99 -48q-62 -38 -103.5 -105t-41.5 -160q0 -82 32 -128.5t98 -46.5zM422 1451q-77 0 -138.5 25.5t-99 69t-57 97.5t-19.5 114q0 62 19 116.5t56 98t98.5 68.5t140.5 25q156 0 240 -88.5t84 -219.5
q0 -57 -20.5 -110.5t-59 -97.5t-102 -71t-142.5 -27zM421 1614q75 0 116.5 42t41.5 97q0 65 -41 107t-117 42q-68 0 -103.5 -42.5t-35.5 -106.5q0 -57 36.5 -98t102.5 -41z" />
    <glyph glyph-name="ae" unicode="&#xe6;" horiz-adv-x="1349" 
d="M42 314q0 162 77 264t242 183q91 46 163 72v177q0 33 -0.5 51t-3.5 45t-10 42t-18.5 30.5t-30.5 22.5t-45 7q-61 0 -100.5 -48.5t-39.5 -157.5v-66h-193q-18 78 -18 136q0 149 98.5 231t260.5 82q164 0 256 -112h8q49 59 115 86t130 27q66 0 121.5 -21t103 -68
t74.5 -133.5t27 -205.5q0 -172 -34 -320h-448v-139q0 -183 30.5 -255t115.5 -72q53 0 88 44.5t35 144.5v50h205v-53q0 -191 -84.5 -282.5t-251.5 -91.5q-191 0 -279 167h-8q-51 -79 -127.5 -123t-161.5 -44q-78 0 -136.5 26.5t-93 72.5t-51 104t-16.5 127zM777 807h247
q4 39 4 146q0 135 -29 194.5t-92 60.5q-69 0 -99.5 -69.5t-30.5 -241.5v-90zM287 353q0 -82 32 -129.5t98 -47.5q57 0 107 57v432q-48 -21 -92 -48q-62 -38 -103.5 -104.5t-41.5 -159.5z" />
    <glyph glyph-name="ccedilla" unicode="&#xe7;" horiz-adv-x="871" 
d="M451 -15q-176 0 -266.5 144.5t-90.5 434.5v260q0 109 14.5 197t37.5 146t57 101.5t67 66.5t74 37t71.5 17.5t65.5 3.5q146 0 231 -76.5t85 -226.5q0 -83 -17 -149h-202v46q0 221 -105 221q-64 0 -93.5 -67t-29.5 -239v-391q0 -183 28 -257t101 -74q43 0 71 44.5t28 145.5
v43h218v-53q0 -193 -85.5 -284t-259.5 -91zM543 4l6 -103q5 -81 -10 -142t-39 -92.5t-57.5 -51t-58 -24.5t-48.5 -5q-72 0 -151 30l7 151q11 -1 33 -1q75 0 112 37t42 146l2 44l93 148z" />
    <glyph glyph-name="egrave" unicode="&#xe8;" horiz-adv-x="924" 
d="M468 -15q-182 0 -275 139t-93 440v260q0 109 15 197t38 146t57.5 101.5t68.5 66.5t76 37t73.5 17.5t68.5 3.5q57 0 106 -12.5t94.5 -43.5t77 -79t50.5 -123t19 -172q0 -177 -33 -322h-457v-140q0 -182 31 -251.5t116 -69.5q52 0 86 44.5t34 145.5v43h211v-53
q0 -192 -92 -283.5t-272 -91.5zM354 811h254q4 39 4 141q0 134 -31.5 195t-95.5 61q-69 0 -100 -70t-31 -243v-84zM486 1462l-334 384l169 137l290 -416z" />
    <glyph glyph-name="eacute" unicode="&#xe9;" horiz-adv-x="924" 
d="M468 -15q-182 0 -275 139t-93 440v260q0 109 15 197t38 146t57.5 101.5t68.5 66.5t76 37t73.5 17.5t68.5 3.5q57 0 106 -12.5t94.5 -43.5t77 -79t50.5 -123t19 -172q0 -177 -33 -322h-457v-140q0 -182 31 -251.5t116 -69.5q52 0 86 44.5t34 145.5v43h211v-53
q0 -192 -92 -283.5t-272 -91.5zM354 811h254q4 39 4 141q0 134 -31.5 195t-95.5 61q-69 0 -100 -70t-31 -243v-84zM486 1462l-125 105l290 416l169 -137z" />
    <glyph glyph-name="ecircumflex" unicode="&#xea;" horiz-adv-x="924" 
d="M468 -15q-182 0 -275 139t-93 440v260q0 109 15 197t38 146t57.5 101.5t68.5 66.5t76 37t73.5 17.5t68.5 3.5q57 0 106 -12.5t94.5 -43.5t77 -79t50.5 -123t19 -172q0 -177 -33 -322h-457v-140q0 -182 31 -251.5t116 -69.5q52 0 86 44.5t34 145.5v43h211v-53
q0 -192 -92 -283.5t-272 -91.5zM354 811h254q4 39 4 141q0 134 -31.5 195t-95.5 61q-69 0 -100 -70t-31 -243v-84zM627 1485l-88 212l-51 172l-50 -172l-94 -212h-218l270 581h174l276 -581h-219z" />
    <glyph glyph-name="edieresis" unicode="&#xeb;" horiz-adv-x="924" 
d="M468 -15q-182 0 -275 139t-93 440v260q0 109 15 197t38 146t57.5 101.5t68.5 66.5t76 37t73.5 17.5t68.5 3.5q57 0 106 -12.5t94.5 -43.5t77 -79t50.5 -123t19 -172q0 -177 -33 -322h-457v-140q0 -182 31 -251.5t116 -69.5q52 0 86 44.5t34 145.5v43h211v-53
q0 -192 -92 -283.5t-272 -91.5zM354 811h254q4 39 4 141q0 134 -31.5 195t-95.5 61q-69 0 -100 -70t-31 -243v-84zM701 1566q-75 0 -105.5 39t-30.5 123q0 89 29.5 130t106.5 41q80 0 113 -40.5t33 -130.5q0 -81 -33.5 -121.5t-112.5 -40.5zM264 1566q-75 0 -106 39.5
t-31 122.5q0 89 30 130t107 41q80 0 112.5 -40.5t32.5 -130.5q0 -81 -33 -121.5t-112 -40.5z" />
    <glyph glyph-name="igrave" unicode="&#xec;" horiz-adv-x="521" 
d="M134 0v1377h253v-1377h-253zM261 1462l-334 384l169 137l290 -416z" />
    <glyph glyph-name="iacute" unicode="&#xed;" horiz-adv-x="521" 
d="M134 0v1377h253v-1377h-253zM261 1462l-125 105l290 416l169 -137z" />
    <glyph glyph-name="icircumflex" unicode="&#xee;" horiz-adv-x="521" 
d="M134 0v1377h253v-1377h-253zM402 1485l-88 212l-51 172l-50 -172l-94 -212h-218l270 581h174l276 -581h-219z" />
    <glyph glyph-name="idieresis" unicode="&#xef;" horiz-adv-x="521" 
d="M134 0v1377h253v-1377h-253zM476 1566q-75 0 -105.5 39t-30.5 123q0 89 29.5 130t106.5 41q80 0 113 -40.5t33 -130.5q0 -81 -33.5 -121.5t-112.5 -40.5zM39 1566q-75 0 -106 39.5t-31 122.5q0 89 30 130t107 41q80 0 112.5 -40.5t32.5 -130.5q0 -81 -33 -121.5
t-112 -40.5z" />
    <glyph glyph-name="eth" unicode="&#xf0;" horiz-adv-x="970" 
d="M489 -15q-43 0 -77.5 4.5t-77 19.5t-75 41t-65 72t-53.5 109t-34 156.5t-13 209.5v198q0 113 14.5 204.5t36.5 151t55 103.5t63.5 67t68 36.5t62.5 16.5t53 3q98 0 116 -10q-37 142 -137 265l-103 -123l-127 106l103 128q-85 49 -179 50v166q157 0 291 -77l111 138
l132 -116l-107 -127q157 -157 241.5 -420t84.5 -568v-192q0 -114 -13.5 -206.5t-34.5 -155.5t-53 -109.5t-64.5 -73t-73 -42t-73.5 -20.5t-72 -5zM491 180q72 0 94 71.5t22 268.5v638q-28 50 -116 50q-45 0 -70 -23.5t-39 -95.5t-14 -208v-361q0 -196 24 -268t99 -72z" />
    <glyph glyph-name="ntilde" unicode="&#xf1;" horiz-adv-x="1021" 
d="M131 0v1377h195l23 -147v-1q103 164 288 164q121 0 186.5 -86t65.5 -252v-1055h-253v1046q0 88 -27 125t-83 37q-38 0 -75.5 -25t-66.5 -69v-1114h-253zM702 1587q-59 0 -103.5 19t-88.5 59q-17 15 -39.5 36t-31.5 29t-22.5 14.5t-28.5 6.5q-43 0 -43 -64v-72h-178
q-4 60 -4 82q0 131 61 188.5t160 57.5q56 0 97 -18.5t83 -58.5q3 -3 21.5 -21t27 -25t24 -19.5t28.5 -17.5t25 -5q50 0 50 59v87h159q11 -65 11 -106q0 -109 -60.5 -170t-147.5 -61z" />
    <glyph glyph-name="ograve" unicode="&#xf2;" horiz-adv-x="958" 
d="M481 -15q-61 0 -108.5 10t-101.5 47t-89.5 100t-59.5 177.5t-24 271.5v216q0 111 12.5 200.5t33 150t52 104.5t63 69t73 39.5t75 18.5t75.5 4q41 0 73.5 -4t73.5 -18t71.5 -38t62 -68t52 -104.5t33 -150.5t12.5 -203v-216q0 -111 -13 -201.5t-34 -152.5t-52.5 -108.5
t-63.5 -73.5t-71.5 -43.5t-73 -21.5t-71.5 -5zM483 180q69 0 96 75t27 268v339q0 193 -27.5 269.5t-95.5 76.5q-72 0 -101.5 -77t-29.5 -269v-339q0 -192 29.5 -267.5t101.5 -75.5zM478 1462l-334 384l169 137l290 -416z" />
    <glyph glyph-name="oacute" unicode="&#xf3;" horiz-adv-x="958" 
d="M481 -15q-61 0 -108.5 10t-101.5 47t-89.5 100t-59.5 177.5t-24 271.5v216q0 111 12.5 200.5t33 150t52 104.5t63 69t73 39.5t75 18.5t75.5 4q41 0 73.5 -4t73.5 -18t71.5 -38t62 -68t52 -104.5t33 -150.5t12.5 -203v-216q0 -111 -13 -201.5t-34 -152.5t-52.5 -108.5
t-63.5 -73.5t-71.5 -43.5t-73 -21.5t-71.5 -5zM483 180q69 0 96 75t27 268v339q0 193 -27.5 269.5t-95.5 76.5q-72 0 -101.5 -77t-29.5 -269v-339q0 -192 29.5 -267.5t101.5 -75.5zM478 1462l-125 105l290 416l169 -137z" />
    <glyph glyph-name="ocircumflex" unicode="&#xf4;" horiz-adv-x="958" 
d="M481 -15q-61 0 -108.5 10t-101.5 47t-89.5 100t-59.5 177.5t-24 271.5v216q0 111 12.5 200.5t33 150t52 104.5t63 69t73 39.5t75 18.5t75.5 4q41 0 73.5 -4t73.5 -18t71.5 -38t62 -68t52 -104.5t33 -150.5t12.5 -203v-216q0 -111 -13 -201.5t-34 -152.5t-52.5 -108.5
t-63.5 -73.5t-71.5 -43.5t-73 -21.5t-71.5 -5zM483 180q69 0 96 75t27 268v339q0 193 -27.5 269.5t-95.5 76.5q-72 0 -101.5 -77t-29.5 -269v-339q0 -192 29.5 -267.5t101.5 -75.5zM619 1485l-88 212l-51 172l-50 -172l-94 -212h-218l270 581h174l276 -581h-219z" />
    <glyph glyph-name="otilde" unicode="&#xf5;" horiz-adv-x="958" 
d="M481 -15q-61 0 -108.5 10t-101.5 47t-89.5 100t-59.5 177.5t-24 271.5v216q0 111 12.5 200.5t33 150t52 104.5t63 69t73 39.5t75 18.5t75.5 4q41 0 73.5 -4t73.5 -18t71.5 -38t62 -68t52 -104.5t33 -150.5t12.5 -203v-216q0 -111 -13 -201.5t-34 -152.5t-52.5 -108.5
t-63.5 -73.5t-71.5 -43.5t-73 -21.5t-71.5 -5zM483 180q69 0 96 75t27 268v339q0 193 -27.5 269.5t-95.5 76.5q-72 0 -101.5 -77t-29.5 -269v-339q0 -192 29.5 -267.5t101.5 -75.5zM644 1587q-59 0 -103.5 19t-88.5 59q-17 15 -39.5 36t-31.5 29t-22.5 14.5t-28.5 6.5
q-43 0 -43 -64v-72h-178q-4 60 -4 82q0 131 61 188.5t160 57.5q56 0 97 -18.5t83 -58.5q3 -3 21.5 -21t27 -25t24 -19.5t28.5 -17.5t25 -5q50 0 50 59v87h159q11 -65 11 -106q0 -109 -60.5 -170t-147.5 -61z" />
    <glyph glyph-name="odieresis" unicode="&#xf6;" horiz-adv-x="958" 
d="M481 -15q-61 0 -108.5 10t-101.5 47t-89.5 100t-59.5 177.5t-24 271.5v216q0 111 12.5 200.5t33 150t52 104.5t63 69t73 39.5t75 18.5t75.5 4q41 0 73.5 -4t73.5 -18t71.5 -38t62 -68t52 -104.5t33 -150.5t12.5 -203v-216q0 -111 -13 -201.5t-34 -152.5t-52.5 -108.5
t-63.5 -73.5t-71.5 -43.5t-73 -21.5t-71.5 -5zM483 180q69 0 96 75t27 268v339q0 193 -27.5 269.5t-95.5 76.5q-72 0 -101.5 -77t-29.5 -269v-339q0 -192 29.5 -267.5t101.5 -75.5zM693 1566q-75 0 -105.5 39t-30.5 123q0 89 29.5 130t106.5 41q80 0 113 -40.5t33 -130.5
q0 -81 -33.5 -121.5t-112.5 -40.5zM256 1566q-75 0 -106 39.5t-31 122.5q0 89 30 130t107 41q80 0 112.5 -40.5t32.5 -130.5q0 -81 -33 -121.5t-112 -40.5z" />
    <glyph glyph-name="divide" unicode="&#xf7;" horiz-adv-x="835" 
d="M418 1043q-61 0 -98 43t-37 119q0 158 136 158q128 0 128 -158q0 -76 -33.5 -119t-95.5 -43zM45 691v196h745v-196h-745zM417 215q-61 0 -98 43t-37 119q0 158 136 158q128 0 128 -158q0 -76 -33.5 -119t-95.5 -43z" />
    <glyph glyph-name="oslash" unicode="&#xf8;" horiz-adv-x="958" 
d="M857 1541l-640 -1712h-117l640 1712h117zM477 -15q-61 0 -108.5 10t-101.5 47t-89.5 100t-59.5 177.5t-24 271.5v216q0 111 12.5 200.5t33 150t52 104.5t63 69t73 39.5t75 18.5t75.5 4q41 0 73.5 -4t73.5 -18t71.5 -38t62 -68t52 -104.5t33 -150.5t12.5 -203v-216
q0 -111 -13 -201.5t-34 -152.5t-52.5 -108.5t-63.5 -73.5t-71.5 -43.5t-73 -21.5t-71.5 -5zM479 180q69 0 96 75t27 268v339q0 193 -27.5 269.5t-95.5 76.5q-72 0 -101.5 -77t-29.5 -269v-339q0 -192 29.5 -267.5t101.5 -75.5z" />
    <glyph glyph-name="ugrave" unicode="&#xf9;" horiz-adv-x="1021" 
d="M132 322v1055h253v-1035q0 -88 27 -125t83 -37q80 0 139 81v1116h253v-1377h-193l-25 147h-1q-103 -163 -284 -163q-121 0 -186.5 85.5t-65.5 252.5zM521 1462l-334 384l169 137l290 -416z" />
    <glyph glyph-name="uacute" unicode="&#xfa;" horiz-adv-x="1021" 
d="M132 322v1055h253v-1035q0 -88 27 -125t83 -37q80 0 139 81v1116h253v-1377h-193l-25 147h-1q-103 -163 -284 -163q-121 0 -186.5 85.5t-65.5 252.5zM521 1462l-125 105l290 416l169 -137z" />
    <glyph glyph-name="ucircumflex" unicode="&#xfb;" horiz-adv-x="1021" 
d="M132 322v1055h253v-1035q0 -88 27 -125t83 -37q80 0 139 81v1116h253v-1377h-193l-25 147h-1q-103 -163 -284 -163q-121 0 -186.5 85.5t-65.5 252.5zM662 1485l-88 212l-51 172l-50 -172l-94 -212h-218l270 581h174l276 -581h-219z" />
    <glyph glyph-name="udieresis" unicode="&#xfc;" horiz-adv-x="1021" 
d="M132 322v1055h253v-1035q0 -88 27 -125t83 -37q80 0 139 81v1116h253v-1377h-193l-25 147h-1q-103 -163 -284 -163q-121 0 -186.5 85.5t-65.5 252.5zM736 1566q-75 0 -105.5 39t-30.5 123q0 89 29.5 130t106.5 41q80 0 113 -40.5t33 -130.5q0 -81 -33.5 -121.5
t-112.5 -40.5zM299 1566q-75 0 -106 39.5t-31 122.5q0 89 30 130t107 41q80 0 112.5 -40.5t32.5 -130.5q0 -81 -33 -121.5t-112 -40.5z" />
    <glyph glyph-name="yacute" unicode="&#xfd;" horiz-adv-x="898" 
d="M85 -265q118 -17 189 48.5t77 208.5l-326 1385h257l145 -762l42 -263h8l29 263l117 762h249l-290 -1428q-39 -204 -123.5 -299t-241.5 -95q-65 0 -133 25zM463 1462l-125 105l290 416l169 -137z" />
    <glyph glyph-name="thorn" unicode="&#xfe;" horiz-adv-x="989" 
d="M369 95l14 -154v-384h-253v2253h253v-365l-8 -181l1 -1q89 122 229 122q23 0 43 -2.5t50.5 -13.5t55 -30.5t51 -56.5t44.5 -87t30 -127.5t12 -173.5v-415q0 -495 -296 -495q-71 0 -131 33.5t-95 77.5zM383 279q43 -99 126 -99q62 0 94.5 53.5t32.5 196.5v518
q0 143 -32 196t-94 53q-80 0 -127 -82v-836z" />
    <glyph glyph-name="ydieresis" unicode="&#xff;" horiz-adv-x="898" 
d="M85 -265q118 -17 189 48.5t77 208.5l-326 1385h257l145 -762l42 -263h8l29 263l117 762h249l-290 -1428q-39 -204 -123.5 -299t-241.5 -95q-65 0 -133 25zM678 1566q-75 0 -105.5 39t-30.5 123q0 89 29.5 130t106.5 41q80 0 113 -40.5t33 -130.5q0 -81 -33.5 -121.5
t-112.5 -40.5zM241 1566q-75 0 -106 39.5t-31 122.5q0 89 30 130t107 41q80 0 112.5 -40.5t32.5 -130.5q0 -81 -33 -121.5t-112 -40.5z" />
    <glyph glyph-name="Dcroat" unicode="&#x110;" horiz-adv-x="1037" 
d="M128 0v817h-85v202h85v706h278q51 0 91 -3t98.5 -16.5t103 -36.5t92 -67.5t78.5 -106t51.5 -155.5t20.5 -211v-523q0 -94 -12.5 -173t-32.5 -136.5t-51 -104t-63 -77t-74 -53t-77 -34t-80 -18.5t-75.5 -8.5t-69.5 -1.5h-278zM387 180h31q137 0 195.5 90t58.5 288v591
q0 190 -57 280t-197 90h-31v-500h158v-202h-158v-637z" />
    <glyph glyph-name="hbar" unicode="&#x127;" horiz-adv-x="1018" 
d="M130 0v1505h-124v171h124v134h253v-134h221v-171h-221v-17l-13 -229q99 134 268 134q121 0 186.5 -86t65.5 -252v-1055h-253v1047q0 87 -27 124t-83 37q-37 0 -75.5 -26t-68.5 -67v-1115h-253z" />
    <glyph glyph-name="Itilde" unicode="&#x128;" horiz-adv-x="551" 
d="M146 0v1708h259v-1708h-259zM440 1729q-106 0 -192 69q-17 15 -39.5 36t-31.5 29t-22.5 14.5t-28.5 6.5q-43 0 -43 -64v-72h-178q-4 60 -4 81q0 126 61 181.5t160 55.5q56 0 97 -16t83 -51q3 -3 21.5 -21t27 -25t24 -19.5t28.5 -17.5t25 -5q50 0 50 58v78h159
q11 -66 11 -106q0 -99 -61 -155.5t-147 -56.5z" />
    <glyph glyph-name="itilde" unicode="&#x129;" horiz-adv-x="521" 
d="M134 0v1377h253v-1377h-253zM427 1587q-59 0 -103.5 19t-88.5 59q-17 15 -39.5 36t-31.5 29t-22.5 14.5t-28.5 6.5q-43 0 -43 -64v-72h-178q-4 60 -4 82q0 131 61 188.5t160 57.5q56 0 97 -18.5t83 -58.5q3 -3 21.5 -21t27 -25t24 -19.5t28.5 -17.5t25 -5q50 0 50 59v87
h159q11 -65 11 -106q0 -109 -60.5 -170t-147.5 -61z" />
    <glyph glyph-name="dotlessi" unicode="&#x131;" horiz-adv-x="521" 
d="M134 0v1377h253v-1377h-253z" />
    <glyph glyph-name="IJ" unicode="&#x132;" horiz-adv-x="1372" 
d="M146 0v1708h259v-1708h-259zM895 -16q-93 0 -161 29.5t-105.5 83t-55 119t-17.5 146.5q0 124 28 257h207l-3 -208q0 -130 23.5 -180.5t80.5 -50.5q50 0 75 44t25 154l3 1330h259v-1294q0 -102 -20 -179.5t-53 -124.5t-81 -76t-97 -39.5t-108 -10.5z" />
    <glyph glyph-name="ij" unicode="&#x133;" horiz-adv-x="1032" 
d="M265 1574q-71 0 -111 43t-40 122q0 86 38.5 123t113.5 37q153 0 153 -160q0 -78 -40 -121.5t-114 -43.5zM134 0v1377h253v-1377h-253zM776 1574q-71 0 -111 43t-40 122q0 86 38.5 123t113.5 37q153 0 153 -160q0 -78 -40 -121.5t-114 -43.5zM645 -116v1493h253v-1461
q0 -87 -15 -152.5t-39.5 -104.5t-61 -62.5t-73.5 -32t-83 -8.5q-69 0 -122 24v147q20 -2 32 -2q109 0 109 159z" />
    <glyph glyph-name="Jcircumflex" unicode="&#x134;" horiz-adv-x="831" 
d="M354 -16q-93 0 -161 29.5t-105.5 83t-55 119t-17.5 146.5q0 124 28 257h207l-3 -208q0 -130 23.5 -180.5t80.5 -50.5q50 0 75 44t25 154l3 1330h259v-1294q0 -102 -20 -179.5t-53 -124.5t-81 -76t-97 -39.5t-108 -10.5zM694 1756l-69 130l-40 56l-40 -56l-84 -130h-248
l250 310h234l246 -310h-249z" />
    <glyph glyph-name="jcircumflex" unicode="&#x135;" horiz-adv-x="521" 
d="M134 -116v1493h253v-1461q0 -87 -15 -152.5t-39.5 -104.5t-61 -62.5t-73.5 -32t-83 -8.5q-69 0 -122 24v147q20 -2 32 -2q109 0 109 159zM406 1485l-88 212l-51 172l-50 -172l-94 -212h-218l270 581h174l276 -581h-219z" />
    <glyph glyph-name="Kcommaaccent" unicode="&#x136;" horiz-adv-x="1021" 
d="M146 0v1708h259v-746h8l296 746h258l-330 -801l367 -907h-277l-314 813h-8v-813h-259zM484 -23h241l-108 -434h-195z" />
    <glyph glyph-name="kcommaaccent" unicode="&#x137;" horiz-adv-x="960" 
d="M134 0v1819h253v-1047h8l276 605h243l-306 -630l335 -747h-258l-290 683h-8v-683h-253zM472 -23h241l-108 -434h-195z" />
    <glyph glyph-name="kgreenlandic" unicode="&#x138;" horiz-adv-x="959" 
d="M134 0v1370h253v-643h8l276 643h243l-295 -656l324 -714h-256l-292 639h-8v-639h-253z" />
    <glyph glyph-name="Ldot" unicode="&#x13f;" horiz-adv-x="790" 
d="M674 601q-68 0 -105.5 48.5t-37.5 115.5q0 73 37 123.5t106 50.5q72 0 111 -50t39 -124q0 -66 -39.5 -115t-110.5 -49zM146 0v1708h259v-1504h353v-204h-612z" />
    <glyph glyph-name="ldot" unicode="&#x140;" horiz-adv-x="767" 
d="M134 0v1810h253v-1810h-253zM619 712q-63 0 -101 47.5t-38 130.5q0 172 140 172q132 0 132 -172q0 -84 -34.5 -131t-98.5 -47z" />
    <glyph glyph-name="Lslash" unicode="&#x141;" horiz-adv-x="773" 
d="M146 0v560l-104 -81l-118 155l222 178v913h256v-707l197 160l130 -168l-327 -253v-550h354v-207h-610z" />
    <glyph glyph-name="lslash" unicode="&#x142;" horiz-adv-x="607" 
d="M175 0v631l-90 -92l-118 121l208 213v937h252v-679l95 97l118 -122l-213 -218v-888h-252z" />
    <glyph glyph-name="Nacute" unicode="&#x143;" horiz-adv-x="1123" 
d="M144 0v1708h210l414 -1143h6q-1 11 -6 66.5t-7.5 89.5t-6.5 94t-5.5 127.5t-1.5 142.5v623h232v-1708h-212l-412 1113h-8q0 -4 7.5 -92.5t10 -134t6 -154.5t3.5 -230v-502h-230zM562 1733l-105 117l321 216l129 -167z" />
    <glyph glyph-name="nacute" unicode="&#x144;" horiz-adv-x="1021" 
d="M131 0v1377h195l23 -147v-1q103 164 288 164q121 0 186.5 -86t65.5 -252v-1055h-253v1046q0 88 -27 125t-83 37q-38 0 -75.5 -25t-66.5 -69v-1114h-253zM536 1462l-125 105l290 416l169 -137z" />
    <glyph glyph-name="OE" unicode="&#x152;" horiz-adv-x="1370" 
d="M103 631v446q0 98 12.5 180t32.5 142.5t51.5 108.5t63.5 80t74.5 55t78.5 35.5t81 19.5t76 8.5t71 1.5h654v-205h-394v-508h307v-224h-307v-566h394v-205h-654q-40 0 -71 1.5t-76.5 8.5t-81 19.5t-78 35.5t-74.5 54.5t-63.5 80t-51.5 108.5t-32.5 142.5t-12.5 180.5z
M631 187h16v1334h-16q-144 0 -202 -94.5t-58 -303.5v-541q0 -211 60 -303t200 -92z" />
    <glyph glyph-name="oe" unicode="&#x153;" horiz-adv-x="1428" 
d="M479 -15q-42 0 -77 5t-75.5 20.5t-72 41.5t-62 72t-50.5 108t-32 152.5t-12 203.5v215q0 111 12.5 199.5t33 148.5t51.5 104.5t62.5 69t72.5 39t74.5 18.5t75.5 4q166 0 253 -113h8q100 113 261 113q336 0 336 -428q0 -176 -33 -320h-449v-139q0 -183 31 -255t116 -72
q53 0 88 44.5t35 144.5v50h205v-53q0 -194 -84.5 -283.5t-266.5 -89.5q-73 0 -137.5 30.5t-109.5 82.5h-8q-91 -113 -246 -113zM856 807h248q4 39 4 146q0 135 -29 194.5t-92 60.5q-69 0 -100 -69.5t-31 -241.5v-90zM481 172q68 0 94.5 74.5t26.5 266.5v351
q0 193 -26.5 268.5t-94.5 75.5q-71 0 -100 -76.5t-29 -267.5v-351q0 -191 28.5 -266t100.5 -75z" />
    <glyph glyph-name="Racute" unicode="&#x154;" horiz-adv-x="1070" 
d="M146 0v1708h281q51 0 90.5 -2.5t96 -13.5t99 -30t88.5 -55.5t75.5 -86.5t49 -127t19.5 -173v-43q0 -383 -221 -494l274 -683h-274l-227 639h-97v-639h-254zM400 826h39q137 0 191.5 66.5t54.5 237.5v135q0 136 -54 195t-192 59h-39v-693zM573 1733l-105 117l321 216
l129 -167z" />
    <glyph glyph-name="Rcommaaccent" unicode="&#x156;" horiz-adv-x="1070" 
d="M146 0v1708h281q51 0 90.5 -2.5t96 -13.5t99 -30t88.5 -55.5t75.5 -86.5t49 -127t19.5 -173v-43q0 -383 -221 -494l274 -683h-274l-227 639h-97v-639h-254zM400 826h39q137 0 191.5 66.5t54.5 237.5v135q0 136 -54 195t-192 59h-39v-693zM481 -23h241l-108 -434h-195z
" />
    <glyph glyph-name="rcommaaccent" unicode="&#x157;" horiz-adv-x="792" 
d="M134 0v1377h185l22 -140q40 76 95 116t113 40q213 0 213 -268q0 -87 -34 -187h-176v128q0 142 -67 142q-61 0 -98 -74v-1134h-253zM155 -23h241l-108 -434h-195z" />
    <glyph glyph-name="Rcaron" unicode="&#x158;" horiz-adv-x="1070" 
d="M146 0v1708h281q51 0 90.5 -2.5t96 -13.5t99 -30t88.5 -55.5t75.5 -86.5t49 -127t19.5 -173v-43q0 -383 -221 -494l274 -683h-274l-227 639h-97v-639h-254zM400 826h39q137 0 191.5 66.5t54.5 237.5v135q0 136 -54 195t-192 59h-39v-693zM687 1756h-234l-250 310h248
l84 -130l40 -56l40 56l69 130h249z" />
    <glyph glyph-name="rcaron" unicode="&#x159;" horiz-adv-x="792" 
d="M134 0v1377h185l22 -140q40 76 95 116t113 40q213 0 213 -268q0 -87 -34 -187h-176v128q0 142 -67 142q-61 0 -98 -74v-1134h-253zM564 1485h-174l-270 581h218l94 -212l50 -171l51 171l88 212h219z" />
    <glyph glyph-name="Scaron" unicode="&#x160;" horiz-adv-x="946" 
d="M75 346q0 93 26 202h201v-83q0 -144 38.5 -214.5t129.5 -70.5q74 0 113 41t39 118q0 80 -24.5 140.5t-95.5 150.5l-270 321q-150 193 -150 385q0 174 105 280.5t288 106.5q108 0 187.5 -31.5t122 -85.5t62 -114.5t19.5 -130.5q0 -21 -1.5 -40.5t-5 -43t-5.5 -36t-8 -43.5
t-8 -41h-200v81q0 281 -166 281q-71 0 -108 -40t-37 -109q0 -67 19 -112t62 -102l301 -364q86 -112 128 -210t42 -204q0 -182 -110 -288t-297 -106q-90 0 -160 20.5t-114 54.5t-72 81.5t-39.5 97.5t-11.5 108zM591 1756h-234l-250 310h248l84 -130l40 -56l40 56l69 130h249z
" />
    <glyph glyph-name="scaron" unicode="&#x161;" horiz-adv-x="820" 
d="M71 288q0 79 25 154h178q0 -149 32 -205.5t115 -56.5q54 0 81.5 30.5t27.5 75.5q0 41 -20 77.5t-66 92.5l-185 218q-90 113 -137.5 205t-47.5 200q0 78 27.5 139t74.5 98.5t107 57t129 19.5q153 0 240 -73t87 -213q0 -72 -25 -170h-175q-2 147 -26.5 209t-96.5 62
q-61 0 -88 -34.5t-27 -84.5q0 -44 20.5 -84t63.5 -94l202 -237q35 -45 53 -69t50.5 -78t48.5 -108.5t16 -111.5q0 -148 -92.5 -235t-258.5 -87q-72 0 -130.5 16t-105 50t-72 94t-25.5 143zM503 1485h-174l-270 581h218l94 -212l50 -171l51 171l88 212h219z" />
    <glyph glyph-name="Ydieresis" unicode="&#x178;" horiz-adv-x="959" 
d="M349 0v569l-344 1139h261l209 -817h12l207 817h260l-346 -1139v-569h-259zM695 1751q-75 0 -105.5 39.5t-30.5 118.5q0 82 29.5 119.5t106.5 37.5q80 0 113 -37t33 -120q0 -76 -34 -117t-112 -41zM258 1751q-75 0 -106 39.5t-31 118.5q0 82 30 119.5t107 37.5
q80 0 112.5 -37t32.5 -120q0 -77 -33.5 -117.5t-111.5 -40.5z" />
    <glyph glyph-name="Zacute" unicode="&#x179;" horiz-adv-x="865" 
d="M39 0v137l506 1367h-430v204h721v-137l-507 -1367h477v-204h-767zM483 1733l-105 117l321 216l129 -167z" />
    <glyph glyph-name="Zcaron" unicode="&#x17d;" horiz-adv-x="865" 
d="M39 0v137l506 1367h-430v204h721v-137l-507 -1367h477v-204h-767zM597 1756h-234l-250 310h248l84 -130l40 -56l40 56l69 130h249z" />
    <glyph glyph-name="zcaron" unicode="&#x17e;" horiz-adv-x="697" 
d="M19 0v126l386 1059h-353v192h624v-126l-387 -1059h389v-192h-659zM432 1485h-174l-270 581h218l94 -212l50 -171l51 171l88 212h219z" />
    <glyph glyph-name="florin" unicode="&#x192;" horiz-adv-x="616" 
d="M153 -59v1020h-115v192h115v323q0 87 16 152t42 104t66 63t82.5 32.5t96.5 8.5q100 0 168 -34v-178q-42 11 -94 11q-55 0 -89.5 -37.5t-34.5 -121.5v-323h201v-192h-201v-1020q0 -87 -16 -152t-42 -104t-66 -63t-82.5 -32.5t-96.5 -8.5q-100 0 -168 34v178q42 -11 94 -11
q55 0 89.5 37.5t34.5 121.5z" />
    <glyph glyph-name="dotlessj" unicode="&#x237;" horiz-adv-x="521" 
d="M134 -116v1493h253v-1461q0 -87 -15 -152.5t-39.5 -104.5t-61 -62.5t-73.5 -32t-83 -8.5q-69 0 -122 24v147q20 -2 32 -2q109 0 109 159z" />
    <glyph glyph-name="circumflex" unicode="&#x2c6;" horiz-adv-x="948" 
d="M615 1485l-88 212l-51 172l-50 -172l-94 -212h-218l270 581h174l276 -581h-219z" />
    <glyph glyph-name="caron" unicode="&#x2c7;" horiz-adv-x="948" 
d="M558 1485h-174l-270 581h218l94 -212l50 -171l51 171l88 212h219z" />
    <glyph glyph-name="dotaccent" unicode="&#x2d9;" horiz-adv-x="533" 
d="M265 1574q-71 0 -111 43t-40 122q0 86 38.5 123t113.5 37q153 0 153 -160q0 -78 -40 -121.5t-114 -43.5z" />
    <glyph glyph-name="ring" unicode="&#x2da;" horiz-adv-x="866" 
d="M428 1451q-77 0 -138.5 25.5t-99 69t-57 97.5t-19.5 114q0 62 19 116.5t56 98t98.5 68.5t140.5 25q156 0 240 -88.5t84 -219.5q0 -57 -20.5 -110.5t-59 -97.5t-102 -71t-142.5 -27zM427 1614q75 0 116.5 42t41.5 97q0 65 -41 107t-117 42q-68 0 -103.5 -42.5
t-35.5 -106.5q0 -57 36.5 -98t102.5 -41z" />
    <glyph glyph-name="tilde" unicode="&#x2dc;" horiz-adv-x="975" 
d="M653 1536q-59 0 -103.5 19t-88.5 59q-17 15 -39.5 36t-31.5 29t-22.5 14.5t-28.5 6.5q-43 0 -43 -64v-72h-178q-4 60 -4 82q0 131 61 188.5t160 57.5q56 0 97 -18.5t83 -58.5q3 -3 21.5 -21t27 -25t24 -19.5t28.5 -17.5t25 -5q50 0 50 59v87h159q11 -65 11 -106
q0 -109 -60.5 -170t-147.5 -61z" />
    <glyph glyph-name="endash" unicode="&#x2013;" horiz-adv-x="1381" 
d="M126 685v203h1128v-203h-1128z" />
    <glyph glyph-name="emdash" unicode="&#x2014;" horiz-adv-x="1647" 
d="M126 685v203h1395v-203h-1395z" />
    <glyph glyph-name="quoteleft" unicode="&#x2018;" horiz-adv-x="620" 
d="M162 1180v224l150 472h197l-79 -397v-299h-268z" />
    <glyph glyph-name="quoteright" unicode="&#x2019;" horiz-adv-x="620" 
d="M448 1876v-224l-150 -472h-197l79 397v299h268z" />
    <glyph glyph-name="quotesinglbase" unicode="&#x201a;" horiz-adv-x="620" 
d="M448 238v-224l-150 -472h-197l79 397v299h268z" />
    <glyph glyph-name="quotedblleft" unicode="&#x201c;" horiz-adv-x="1092" 
d="M162 1180v224l150 472h197l-79 -397v-299h-268zM634 1180v224l150 472h197l-79 -397v-299h-268z" />
    <glyph glyph-name="quotedblright" unicode="&#x201d;" horiz-adv-x="1088" 
d="M448 1878v-224l-150 -472h-197l79 397v299h268zM916 1878v-224l-150 -472h-197l79 397v299h268z" />
    <glyph glyph-name="quotedblbase" unicode="&#x201e;" horiz-adv-x="1092" 
d="M448 238v-224l-150 -472h-197l79 397v299h268zM920 238v-224l-150 -472h-197l79 397v299h268z" />
    <glyph glyph-name="dagger" unicode="&#x2020;" horiz-adv-x="452" 
d="M116 -323v1478h-262v201h262v509h220v-509h263v-201h-263v-1478h-220z" />
    <glyph glyph-name="daggerdbl" unicode="&#x2021;" horiz-adv-x="452" 
d="M116 -323v951h-262v201h262v326h-262v201h262v509h220v-509h262v-201h-262v-326h262v-201h-262v-951h-220z" />
    <glyph glyph-name="bullet" unicode="&#x2022;" horiz-adv-x="711" 
d="M350 532q-103 0 -159.5 68t-56.5 164q0 103 55 173.5t161 70.5q109 0 168 -70.5t59 -173.5q0 -92 -60 -162t-167 -70z" />
    <glyph glyph-name="ellipsis" unicode="&#x2026;" horiz-adv-x="1483" 
d="M91 179q0 198 156 198q75 0 116 -50t41 -148q0 -91 -42 -142t-116 -51q-72 0 -113.5 50t-41.5 143zM581 179q0 198 156 198q75 0 116 -50t41 -148q0 -91 -42 -142t-116 -51q-72 0 -113.5 50t-41.5 143zM1072 179q0 198 156 198q75 0 116 -50t41 -148q0 -91 -42 -142
t-116 -51q-72 0 -113.5 50t-41.5 143z" />
    <glyph glyph-name="perthousand" unicode="&#x2030;" horiz-adv-x="2676" 
d="M1877 420v107q0 105 20.5 183.5t52 122.5t76.5 71t85.5 35t88.5 8q38 0 71.5 -6t72 -21t68 -45t55 -74.5t39 -114.5t13.5 -159v-107q0 -105 -21 -185.5t-52.5 -126.5t-76 -75t-85 -38.5t-85.5 -9.5q-50 0 -92 9t-86 37.5t-74.5 74.5t-50 126.5t-19.5 187.5zM2082 368
q0 -117 27.5 -170.5t91.5 -53.5q61 0 87 53.5t26 170.5v194q0 118 -26 172t-87 54q-64 0 -91.5 -54t-27.5 -172v-194zM479 786q-50 0 -92 9t-86.5 37.5t-75 74.5t-50 126.5t-19.5 187.5v107q0 105 20.5 183.5t52 122.5t77 71t86 35t88.5 8q38 0 71.5 -6t72 -21t68 -45
t55 -74.5t39 -114.5t13.5 -159v-107q0 -105 -21 -185.5t-52.5 -126.5t-76 -75t-85 -38.5t-85.5 -9.5zM625 0l460 1727h181l-459 -1727h-182zM481 945q61 0 87 53.5t26 170.5v194q0 118 -26 172t-87 54q-64 0 -91.5 -54t-27.5 -172v-194q0 -117 27.5 -170.5t91.5 -53.5z
M1087 420v107q0 105 20.5 183.5t52 122.5t76.5 71t85.5 35t88.5 8q38 0 71.5 -6t72 -21t68 -45t55 -74.5t39 -114.5t13.5 -159v-107q0 -105 -21 -185.5t-52.5 -126.5t-76 -75t-85 -38.5t-85.5 -9.5q-50 0 -92 9t-86 37.5t-74.5 74.5t-50 126.5t-19.5 187.5zM1292 368
q0 -117 27.5 -170.5t91.5 -53.5q61 0 87 53.5t26 170.5v194q0 118 -26 172t-87 54q-64 0 -91.5 -54t-27.5 -172v-194z" />
    <glyph glyph-name="guilsinglleft" unicode="&#x2039;" horiz-adv-x="834" 
d="M529 305l-385 412v150l389 406l137 -124l-283 -359l279 -360z" />
    <glyph glyph-name="guilsinglright" unicode="&#x203a;" horiz-adv-x="834" 
d="M680 717l-385 -412l-137 125l279 360l-283 359l137 124l389 -406v-150z" />
    <glyph glyph-name="fraction" unicode="&#x2044;" horiz-adv-x="452" 
d="M88 0h-182l459 1709h182z" />
    <glyph glyph-name="Euro" unicode="&#x20ac;" horiz-adv-x="1038" 
d="M4 546v180h154v151h-154v179h154v105q0 107 16 193t41 143.5t62.5 100.5t74.5 66.5t83 37t81 17.5t76 4q190 0 276 -92t86 -245q0 -34 -3 -64t-5 -43t-9.5 -45t-9.5 -40h-200v65q0 136 -35.5 198.5t-106.5 62.5q-80 0 -121 -65t-41 -222v-177h322l-29 -179h-293v-151h267
l-32 -180h-235v-90q0 -153 43.5 -214t136.5 -61q71 0 113.5 46.5t42.5 138.5v73h218v-61q0 -391 -374 -393q-42 0 -79.5 4.5t-84 19t-84 38.5t-75.5 67t-63.5 100t-41.5 142t-17 190h-154z" />
    <glyph glyph-name="trademark" unicode="&#x2122;" horiz-adv-x="1597" 
d="M686 873v852h227l126 -363l34 -113h16l35 113l137 363h204v-852h-177v86q0 109 2.5 199t4.5 126t7.5 103.5t6.5 76.5h-6l-166 -467h-113l-175 467h-7q1 -9 6.5 -76.5t7.5 -103.5t4.5 -126t2.5 -199v-86h-177zM218 873v693h-178l1 159h533v-159h-178v-693h-178z" />
    <glyph glyph-name="minus" unicode="&#x2212;" horiz-adv-x="997" 
d="M126 691v196h745v-196h-745z" />
    <glyph glyph-name="radical" unicode="&#x221a;" horiz-adv-x="1033" 
d="M444 0l-269 994h-144v196h347l141 -548l33 -292h8l38 292l281 1419h244l-463 -2061h-216z" />
    <glyph glyph-name="integral" unicode="&#x222b;" horiz-adv-x="616" 
d="M153 -59v1535q0 87 16 152t42 104t66 63t82.5 32.5t96.5 8.5q100 0 168 -34v-178q-42 11 -94 11q-55 0 -89.5 -37.5t-34.5 -121.5v-1535q0 -87 -16 -152t-42 -104t-66 -63t-82.5 -32.5t-96.5 -8.5q-100 0 -168 34v178q42 -11 94 -11q55 0 89.5 37.5t34.5 121.5z" />
    <glyph glyph-name="approxequal" unicode="&#x2248;" horiz-adv-x="1304" 
d="M130 935q-8 101 4 179.5t39 129t68 83t87 45.5t100 13t101.5 -17t81 -44.5t63.5 -61t54.5 -67t47 -61t48.5 -44.5t52 -17q69 0 94.5 72.5t1.5 208.5h192q21 -117 7.5 -205.5t-54 -147t-96.5 -88t-121 -29.5q-64 0 -120 23t-93.5 57t-73.5 74.5t-62 74.5t-56.5 57
t-60.5 23q-74 0 -105 -70.5t-13 -187.5h-186zM119 280q-8 101 4 179.5t39 129t68 83t87 45.5t100 13t101.5 -17t81 -44.5t63.5 -61t54.5 -67t47 -61t48.5 -44.5t52 -17q69 0 94.5 72.5t1.5 208.5h192q21 -117 7.5 -205.5t-54 -147t-96.5 -88t-121 -29.5q-76 0 -140 32
t-106 77.5t-77.5 90.5t-71.5 77t-71 32q-74 0 -105 -70.5t-13 -187.5h-186z" />
    <glyph glyph-name="notequal" unicode="&#x2260;" horiz-adv-x="916" 
d="M175 200l86 288h-175v195h234l63 212h-297v195h356l84 279h159l-84 -279h229v-195h-288l-63 -212h351v-195h-410l-86 -288h-159z" />
    <glyph glyph-name="commaaccent" unicode="&#xf6c3;" horiz-adv-x="531" 
d="M176 -23h241l-108 -434h-195z" />
    <glyph glyph-name="acute.cap" horiz-adv-x="678" 
d="M219 1733l-105 117l321 216l129 -167z" />
    <glyph glyph-name="grave.cap" horiz-adv-x="678" 
d="M459 1733l-345 166l129 167l321 -216z" />
    <glyph glyph-name="dieresis.cap" horiz-adv-x="948" 
d="M688 1751q-75 0 -105.5 39.5t-30.5 118.5q0 82 29.5 119.5t106.5 37.5q80 0 113 -37t33 -120q0 -76 -34 -117t-112 -41zM251 1751q-75 0 -106 39.5t-31 118.5q0 82 30 119.5t107 37.5q80 0 112.5 -37t32.5 -120q0 -77 -33.5 -117.5t-111.5 -40.5z" />
    <glyph glyph-name="ring.cap" horiz-adv-x="866" 
d="M428 1480q-77 0 -138.5 25t-99 67t-57 94t-19.5 110q0 125 80 207t234 82q157 0 240.5 -81.5t83.5 -207.5q0 -55 -20.5 -107t-59 -94.5t-102 -68.5t-142.5 -26zM427 1643q75 0 116.5 39t41.5 90q0 59 -40.5 95t-117.5 36q-69 0 -104 -36t-35 -95q0 -53 36.5 -91
t102.5 -38z" />
    <glyph glyph-name="tilde.cap" horiz-adv-x="975" 
d="M653 1729q-106 0 -192 69q-17 15 -39.5 36t-31.5 29t-22.5 14.5t-28.5 6.5q-43 0 -43 -64v-72h-178q-4 60 -4 81q0 126 61 181.5t160 55.5q56 0 97 -16t83 -51q3 -3 21.5 -21t27 -25t24 -19.5t28.5 -17.5t25 -5q50 0 50 58v78h159q11 -66 11 -106q0 -99 -61 -155.5
t-147 -56.5z" />
    <glyph glyph-name="macron.cap" horiz-adv-x="851" 
d="M114 1874v192h623v-192h-623z" />
    <glyph glyph-name="circumflex.cap" horiz-adv-x="958" 
d="M595 1756l-69 130l-40 56l-40 -56l-84 -130h-248l250 310h234l246 -310h-249z" />
    <glyph glyph-name="caron.cap" horiz-adv-x="958" 
d="M598 1756h-234l-250 310h248l84 -130l40 -56l40 56l69 130h249z" />
  </font>
</defs>
</svg>
